(Baroque Opera) Paisiello - Don Chisciotte (Barbacini, Franceschetto, Peters, Zilio, Bolognesi - Orchestra del Teatro dell`Opera di Roma, Morandi) - 2007, APE (image+.cue) lossless


 

[Цитировать]

Giovanni Paisiello - Don Chisciotte
Жанр: Baroque Opera
Страна-производитель диска: EU
Год издания диска: 2007
Издатель (лейбл): Nuova Era
Номер по каталогу: 231574
Дата записи: 1990
Аудиокодек: APE
Тип рипа: image+.cue
Битрейт аудио: lossless
Продолжительность: 58'34+58'34
Источник: собственный рип
Наличие сканов в содержимом раздачи: да
Треклист:
Disc: 1
1. Sinfonia
2. Act 1: I. Mi perdoni, padron mio
3. II. Che d'e sto lamento
4. III. Begli occhietti vivacetti
5. IV. Alto alto canaglia...
6. V. Qui riman l'elmo
7. VI. Empia fera: bestia immonda
8. VII. Finale primo: si vuo farete
9. Act 2: I. Cavalier, che cos'e?
10. II. Dille che qui l'attendo
11. III. Sinfonia
12. IV. Vaghe aurette lusinghiere
Disc: 2
1. V. Questa e colei
2. VI. Pietoso mio campione
3. VII. Sancio caro, fermo in groppa
4. VIII. Venga pur ma zitto zitto
5. IX. Se e ver che voi mi amate
6. X. Finale secondo: son viva? Che pene!
7. Act 3: I. Sentite! Se del pazzo
8. II. Vorrei sdegnarmi, oh Dio
9. III. Vieni pure in campo armato
10. IV. Non mi credea d'avere
11. V. Finale terzo: empio destino ingrato
Исполнители:
Giovanni Paisiello - Don Chisciotte
The libretto is based on a 1719 play, this was the first collaboration between librettist Lorenzo and Paisiello, which was to last a lifetime for these Neapolitan opera buffo pioneers.
Don Chisciotte - Paolo Barbacini, tenor
Sancio Pancia - Romano Franceschetto, bass-baritone
La Contessa - Maria Angeles Peters, soprano
La Duchessa - Elena Zilio, mezzo-soprano
Don Calafrone - Mario Bolognesi, tenor
Don Platone - Bruno Praticò, bass-baritone
Carmonsina - Bernadette Lucarini
Cardolella - Francesca Arnone
Ricciardetta - Annabella Rossi
Orchestra del Teatro dell’Opera di Roma
Pier Giorgio Morandi

Лог создания рипа

CD1

Exact Audio Copy V1.0 beta 3 from 29. August 2011
EAC extraction logfile from 2. May 2015, 15:13
Paisiello / Don Chisciotte, Morandi CD1
Used drive : TSSTcorpCDDVDW SE-208AB Adapter: 1 ID: 0
Read mode : Secure
Utilize accurate stream : Yes
Defeat audio cache : Yes
Make use of C2 pointers : No
Read offset correction : 6
Overread into Lead-In and Lead-Out : No
Fill up missing offset samples with silence : Yes
Delete leading and trailing silent blocks : No
Null samples used in CRC calculations : Yes
Used interface : Native Win32 interface for Win NT & 2000
Used output format : Monkey's Audio Lossless Encoder
Selected bitrate : High Lossless Compression
Quality : High
Add ID3 tag : Yes
Command line compressor : C:\Program Files (x86)\Exact Audio Copy\MAC\MAC.exe
TOC of the extracted CD
Track | Start | Length | Start sector | End sector
---------------------------------------------------------
1 | 0:00.00 | 3:18.03 | 0 | 14852
2 | 3:18.03 | 3:53.60 | 14853 | 32387
3 | 7:11.63 | 2:21.57 | 32388 | 43019
4 | 9:33.45 | 7:03.45 | 43020 | 74789
5 | 16:37.15 | 6:18.53 | 74790 | 103192
6 | 22:55.68 | 7:00.40 | 103193 | 134732
7 | 29:56.33 | 4:49.72 | 134733 | 156479
8 | 34:46.30 | 8:36.41 | 156480 | 195220
9 | 43:22.71 | 1:58.40 | 195221 | 204110
10 | 45:21.36 | 3:26.00 | 204111 | 219560
11 | 48:47.36 | 3:35.50 | 219561 | 235735
12 | 52:23.11 | 4:03.17 | 235736 | 253977
Range status and errors
Selected range
Filename D:\EAC\Paisiello - Don Chisciotte, Morandi CD1.wav
Peak level 100.0 %
Extraction speed 4.7 X
Range quality 100.0 %
Test CRC B3132ADE
Copy CRC B3132ADE
Copy OK
No errors occurred
AccurateRip summary
Track 1 accurately ripped (confidence 2) [458E146B] (AR v1)
Track 2 accurately ripped (confidence 2) [9DD3D72C] (AR v1)
Track 3 accurately ripped (confidence 2) [1B24A17B] (AR v1)
Track 4 accurately ripped (confidence 2) [1A30DF54] (AR v1)
Track 5 accurately ripped (confidence 2) [713FAE65] (AR v1)
Track 6 accurately ripped (confidence 2) [390349E1] (AR v1)
Track 7 accurately ripped (confidence 2) [60C655A6] (AR v1)
Track 8 accurately ripped (confidence 2) [F2388450] (AR v1)
Track 9 accurately ripped (confidence 2) [A68A5C6E] (AR v1)
Track 10 accurately ripped (confidence 2) [EACC92D4] (AR v1)
Track 11 accurately ripped (confidence 2) [76059593] (AR v1)
Track 12 accurately ripped (confidence 2) [8CED0E52] (AR v1)
All tracks accurately ripped
End of status report
---- CUETools DB Plugin V2.1.3
[CTDB TOCID: x35t9rll_NcsGf17fZnmQW2BWk8-] disk not present in database, Submit result: x35t9rll_NcsGf17fZnmQW2BWk8- has been uploaded
==== Log checksum F536879286D133C0237F519F767D3EE3F0C289E718A2AF87021B64E7FDCC11F6 ====

CD2

Exact Audio Copy V1.0 beta 3 from 29. August 2011
EAC extraction logfile from 2. May 2015, 15:35
Paisiello / Don Chisciotte, Morandi CD2
Used drive : TS8XDVDSTRANSCEND Adapter: 1 ID: 1
Read mode : Secure
Utilize accurate stream : Yes
Defeat audio cache : Yes
Make use of C2 pointers : No
Read offset correction : 6
Overread into Lead-In and Lead-Out : No
Fill up missing offset samples with silence : Yes
Delete leading and trailing silent blocks : No
Null samples used in CRC calculations : Yes
Used interface : Native Win32 interface for Win NT & 2000
Used output format : Monkey's Audio Lossless Encoder
Selected bitrate : High Lossless Compression
Quality : High
Add ID3 tag : Yes
Command line compressor : C:\Program Files (x86)\Exact Audio Copy\MAC\MAC.exe
TOC of the extracted CD
Track | Start | Length | Start sector | End sector
---------------------------------------------------------
1 | 0:00.00 | 4:08.54 | 0 | 18653
2 | 4:08.54 | 3:25.25 | 18654 | 34053
3 | 7:34.04 | 4:55.42 | 34054 | 56220
4 | 12:29.46 | 3:02.33 | 56221 | 69903
5 | 15:32.04 | 4:55.60 | 69904 | 92088
6 | 20:27.64 | 7:57.51 | 92089 | 127914
7 | 28:25.40 | 1:37.72 | 127915 | 135261
8 | 30:03.37 | 4:05.42 | 135262 | 153678
9 | 34:09.04 | 4:11.18 | 153679 | 172521
10 | 38:20.22 | 4:21.57 | 172522 | 192153
11 | 42:42.04 | 13:46.33 | 192154 | 254136
Range status and errors
Selected range
Filename D:\EAC\Paisiello - Don Chisciotte, Morandi CD2.wav
Peak level 100.0 %
Extraction speed 1.9 X
Range quality 100.0 %
Test CRC CE0B1E0E
Copy CRC CE0B1E0E
Copy OK
No errors occurred
AccurateRip summary
Track 1 accurately ripped (confidence 1) [1E2EE0F9] (AR v1)
Track 2 accurately ripped (confidence 1) [F8213025] (AR v1)
Track 3 accurately ripped (confidence 1) [17DAF5D9] (AR v1)
Track 4 accurately ripped (confidence 1) [C089E39F] (AR v1)
Track 5 accurately ripped (confidence 1) [DC48D5AD] (AR v1)
Track 6 cannot be verified as accurate (confidence 1) [206A978F], AccurateRip returned [40DCA81C] (AR v2)
Track 7 accurately ripped (confidence 1) [7493E57E] (AR v1)
Track 8 accurately ripped (confidence 1) [852A58C5] (AR v1)
Track 9 accurately ripped (confidence 1) [BB891F2C] (AR v1)
Track 10 accurately ripped (confidence 1) [1CD7C956] (AR v1)
Track 11 accurately ripped (confidence 1) [E9B09058] (AR v1)
10 track(s) accurately ripped
1 track(s) could not be verified as accurate
Some tracks could not be verified as accurate
End of status report
---- CUETools DB Plugin V2.1.3
[CTDB TOCID: 77kS8DnvXvRHRHr7Zjss4uAA6jw-] disk not present in database, Submit result: unrecognized or virtual drive
==== Log checksum 656D5A2FD6F8C5370DA76259778DE4832A9E5C63D58BD63A7327C5AC8F61253F ====

Содержание индексной карты (.CUE)

CD1

REM GENRE Opera
REM DATE 2007
REM DISCID B40D3A0C
REM COMMENT "ExactAudioCopy v1.0b3"
PERFORMER "Paisiello"
TITLE "Don Chisciotte, Morandi CD1"
FILE "Paisiello - Don Chisciotte, Morandi CD1.ape" WAVE
TRACK 01 AUDIO
TITLE "Sinfonia { Don Chisciotte della Mancia, Naples 1769 ~ Giovanni Paisiello ..."
PERFORMER "Paisiello"
ISRC DEU240624957
INDEX 01 00:00:00
TRACK 02 AUDIO
TITLE "Act I - Mi perdoni, padron mio (Calafrone_Platone_Contessa_Duchessa_Carmonisa)"
PERFORMER "Paisiello"
ISRC DEU240624958
INDEX 01 03:18:03
TRACK 03 AUDIO
TITLE "Act I - Che d'è sto lamento (Don Platone)"
PERFORMER "Paisiello"
ISRC DEU240624959
INDEX 01 07:11:63
TRACK 04 AUDIO
TITLE "Act I - Begli occhietti vivacetti (Duchessa)"
PERFORMER "Paisiello"
ISRC DEU240624960
INDEX 01 09:33:45
TRACK 05 AUDIO
TITLE "Act I - Alto alto canaglia. (Sancio_Don Chisciotte)"
PERFORMER "Paisiello"
ISRC DEU240624961
INDEX 01 16:37:15
TRACK 06 AUDIO
TITLE "Act I - Qui riman l'elmo. (Sancio_Don Chisciotte)"
PERFORMER "Paisiello"
ISRC DEU240624962
INDEX 01 22:55:68
TRACK 07 AUDIO
TITLE "Act I - Empia fera; bestia immonda. (Don Chisciotte)"
PERFORMER "Paisiello"
ISRC DEU240624963
INDEX 01 29:56:33
TRACK 08 AUDIO
TITLE "Act I - Si vuo' farete (Carmosina_Cardoletta_Sancio_Chisciotte_Contessa_Duche..."
PERFORMER "Paisiello"
ISRC DEU240624964
INDEX 01 34:46:30
TRACK 09 AUDIO
TITLE "Act II - Cavalier, che cos'è ? (Duchessa)"
PERFORMER "Paisiello"
ISRC DEU240624965
INDEX 00 43:20:71
INDEX 01 43:22:71
TRACK 10 AUDIO
TITLE "Act II - Dille che qui l'attendo. (Don Chisciotte)"
PERFORMER "Paisiello"
ISRC DEU240624966
INDEX 01 45:21:36
TRACK 11 AUDIO
TITLE "Act II - Sinfonia (Orchestra Del Teatro Del'Opera di Roma)"
PERFORMER "Paisiello"
ISRC DEU240624967
INDEX 01 48:47:36
TRACK 12 AUDIO
TITLE "Act II - Vaghe aurette lusinghiere (Contessa_Carmosina)"
PERFORMER "Paisiello"
ISRC DEU240624968
INDEX 01 52:23:11

CD2

REM GENRE Opera
REM DATE 2007
REM DISCID 800D3C0B
REM COMMENT "ExactAudioCopy v1.0b3"
PERFORMER "Paisiello"
TITLE "Don Chisciotte, Morandi CD2"
FILE "Paisiello - Don Chisciotte, Morandi CD2.ape" WAVE
TRACK 01 AUDIO
TITLE "Act II - Questa è collei (Contessa)"
PERFORMER "Paisiello"
ISRC DEU240624969
INDEX 01 00:00:00
TRACK 02 AUDIO
TITLE "Act II - Pietoso mio campione (Don Platone)"
PERFORMER "Paisiello"
ISRC DEU240624970
INDEX 01 04:08:54
TRACK 03 AUDIO
TITLE "Act II - Sancio caro, fermo in groppa (Don Chisciotte_Sancio_Contessa_Carmos..."
PERFORMER "Paisiello"
ISRC DEU240624971
INDEX 01 07:34:04
TRACK 04 AUDIO
TITLE "Act II - Venga pur ma zitto, zitto (Sancio)"
PERFORMER "Paisiello"
ISRC DEU240624972
INDEX 01 12:29:46
TRACK 05 AUDIO
TITLE "Act II - Se è ver che voi mi amate (Contessa)"
PERFORMER "Paisiello"
ISRC DEU240624973
INDEX 01 15:32:04
TRACK 06 AUDIO
TITLE "Act II - Son viva? Che pene! (Cont._Duch._Carmosina_Cardoletta_Chiscotte_Sanc..."
PERFORMER "Paisiello"
ISRC DEU240624974
INDEX 01 20:27:64
TRACK 07 AUDIO
TITLE "Act III - Sentite! Se del pazzo (Carmosina)"
PERFORMER "Paisiello"
ISRC DEU240624975
INDEX 00 28:23:40
INDEX 01 28:25:40
TRACK 08 AUDIO
TITLE "Act III - Vorrei sdegnarmi, oh Dio (Duchessa)"
PERFORMER "Paisiello"
ISRC DEU240624976
INDEX 01 30:03:37
TRACK 09 AUDIO
TITLE "Act III - Vieni pure in campo armato (Don Calafrone)"
PERFORMER "Paisiello"
ISRC DEU240624977
INDEX 01 34:09:04
TRACK 10 AUDIO
TITLE "Act III - Non mi credea d'avere (Don Platone)"
PERFORMER "Paisiello"
ISRC DEU240624978
INDEX 01 38:20:22
TRACK 11 AUDIO
TITLE "Act III - Finale terzo ~ Empio destino ingrato (Don Chisciotte_Tutti)"
PERFORMER "Paisiello"
ISRC DEU240624979
INDEX 01 42:42:04
Доп. информация:
Paisiello (1740-1816) was the master of Italian opera buffo and a significant influence on Mozart.
His orchestral writing and musical characterizations are deft and dramatic, and he was the first to introduce ensemble finales into comic operas.
Don Chisciotte is an early work, premièred in Naples (where he spent most of his life) in 1769, and it already shows all the skills that made his work popular throughout Europe.
The libretto by Lorenzi is based on a 1719 play that deals with the Don's visit to a noble court and the tricks that are played on him there, drawing in material from elsewhere in Cervantes' novel, including his tilt with the windmills.
The characters are reduced from aristocrats to middle-class Neapolitans familiar to the opera's audiences, and they are treated with parodistic irony.
The music bubbles along merrily, with lots of rapid figurations in conventional formal frames, much secco recitative moving the action along, and while none of the arias is especially memorable, they (especially the ensemble numbers) are consistently graceful and melodious.
The cast (more familiar to audiences in Italy than elsewhere) is more than adequate, with bright, clear, and well-trained voices; they provide effective characterizations, and the enjoyment they seem to be taking in their roles is transmitted to the listener.
Velia de Vita's harpsichord continuo for the recitatives is excellent, and the orchestra sounds fine under Morandi's energetic direction.
But there's much in the music that clearly foreshadows Le Nozze di Figaro, and on its own terms it's delightfully entertaining.



Показать сообщения:    

Текущее время: 09-Дек 22:26

Часовой пояс: UTC + 3


Вы не можете начинать темы
Вы не можете отвечать на сообщения
Вы не можете редактировать свои сообщения
Вы не можете удалять свои сообщения
Вы не можете голосовать в опросах
Вы не можете прикреплять файлы к сообщениям
Вы не можете скачивать файлы