(Choral/Cantata/Sacred) Mendelssohn - Die Erste Walpurgisnacht • O Haupt voll Blut und Wunden • Kyrie (Lang, Cachemaille, Balleys - Gulbenkian Chorus & Orchestra/Ensemble Vocal & Instrumental de Lausanne, Corbos) - 2002, APE (image+.cue) loss


Статистика раздачи [Обновить пиров]
Размер:  220 MB   |    Зарегистрирован:  8 месяцев 20 дней   |    Скачан:  2 раза

Полного источника не было: 1 месяц 7 дней

 
   
 
 
 

[Цитировать]

Felix Mendelssohn Bartholdy - Die Erste Walpurgisnacht • O Haupt voll Blut und Wunden • Kyrie
Жанр: Choral / Cantata / Sacred
Страна-производитель диска: EU
Год издания диска: 2002
Издатель (лейбл): Apex
Номер по каталогу: 0927-48690-2
Дата записи: 1990
Аудиокодек: APE
Тип рипа: image+.cue
Битрейт аудио: lossless
Продолжительность: 56'38
Источник: собственный рип
Наличие сканов в содержимом раздачи: да
Треклист/Исполнители:

Die Erste Walpurgisnacht, cantata for chorus & orchestra, Op. 60

1. Ouverture
2. No. 1. Es lacht der Mai!
3. No. 2. Könnt ihr so verwegen handeln?
4. No. 3. Wer Opfer heut' zu bringen scheut
5. No. 4. Verteilt euch, wackre Männer, hier
6. No. 5. Diese dumpfen Pfaffenchristen
7. No. 6. Kommt mit Zacken und mit Gabeln
8. No. 7. Wo weit gebracht, daß wir bei Nacht Allvater heimlich singen
9. No. 8. Hilf, ach hilf mir, Kriegsgeselle!...Schreckliche verhexte Leiber
10. No. 9. Die Flamme reinight sich vom Rauch

O Haupt Voll Blut und Wunden, chorale cantata for voice, chorus & orchestra in C minor

11. Chœur. O Haupt voll Blut und Wunden
12. Air. Du, dessen Todeswunden
13. Choral. Ich will hier bei dir stehen
Frieder Lang (Tenor)
Gilles Cachemaille (Bass)
Brigitte Balleys (Mezzo soprano)
Gulbenkian Chorus & Orchestra
Conductor: Michel Corboz

Kyrie, for Chorus and Orchestra in D minor

14. Kyrie
Ensemble Vocal & Instrumental de Lausanne
Conductor: Michel Corboz

Лог создания рипа

Exact Audio Copy V1.0 beta 3 from 29. August 2011
EAC extraction logfile from 4. May 2015, 17:16
Mendelssohn / Walpurgisnacht, Kantate & Kyrie, Corboz
Used drive : TS8XDVDSTRANSCEND Adapter: 1 ID: 1
Read mode : Secure
Utilize accurate stream : Yes
Defeat audio cache : Yes
Make use of C2 pointers : No
Read offset correction : 6
Overread into Lead-In and Lead-Out : No
Fill up missing offset samples with silence : Yes
Delete leading and trailing silent blocks : No
Null samples used in CRC calculations : Yes
Used interface : Native Win32 interface for Win NT & 2000
Used output format : Monkey's Audio Lossless Encoder
Selected bitrate : High Lossless Compression
Quality : High
Add ID3 tag : Yes
Command line compressor : C:\Program Files (x86)\Exact Audio Copy\MAC\MAC.exe
TOC of the extracted CD
Track | Start | Length | Start sector | End sector
---------------------------------------------------------
1 | 0:00.00 | 9:23.35 | 0 | 42259
2 | 9:23.35 | 4:12.55 | 42260 | 61214
3 | 13:36.15 | 2:32.00 | 61215 | 72614
4 | 16:08.15 | 2:20.35 | 72615 | 83149
5 | 18:28.50 | 1:48.62 | 83150 | 91311
6 | 20:17.37 | 2:27.00 | 91312 | 102336
7 | 22:44.37 | 4:54.03 | 102337 | 124389
8 | 27:38.40 | 3:50.70 | 124390 | 141709
9 | 31:29.35 | 1:11.67 | 141710 | 147101
10 | 32:41.27 | 2:55.65 | 147102 | 160291
11 | 35:37.17 | 5:48.65 | 160292 | 186456
12 | 41:26.07 | 4:54.25 | 186457 | 208531
13 | 46:20.32 | 2:28.25 | 208532 | 219656
14 | 48:48.57 | 7:57.40 | 219657 | 255471
Range status and errors
Selected range
Filename D:\EAC\Mendelssohn - Walpurgisnacht, Kantate & Kyrie, Corboz.wav
Peak level 100.0 %
Extraction speed 3.0 X
Range quality 100.0 %
Test CRC 4976BF5D
Copy CRC 4976BF5D
Copy OK
No errors occurred
AccurateRip summary
Track 1 accurately ripped (confidence 2) [C522419B] (AR v2)
Track 2 accurately ripped (confidence 2) [8C6B19C1] (AR v2)
Track 3 accurately ripped (confidence 2) [9F809557] (AR v2)
Track 4 accurately ripped (confidence 2) [1F2AE994] (AR v2)
Track 5 accurately ripped (confidence 2) [543A3B01] (AR v2)
Track 6 accurately ripped (confidence 2) [8BE6F1E6] (AR v2)
Track 7 accurately ripped (confidence 2) [FE53D55F] (AR v2)
Track 8 accurately ripped (confidence 2) [64EE0715] (AR v2)
Track 9 accurately ripped (confidence 2) [380C80C5] (AR v2)
Track 10 accurately ripped (confidence 2) [DCB8B968] (AR v2)
Track 11 accurately ripped (confidence 2) [E36E0B33] (AR v2)
Track 12 accurately ripped (confidence 2) [77AAFA1F] (AR v2)
Track 13 accurately ripped (confidence 2) [B02C199A] (AR v2)
Track 14 accurately ripped (confidence 2) [51C6BE5A] (AR v2)
All tracks accurately ripped
End of status report
---- CUETools DB Plugin V2.1.3
[CTDB TOCID: 25oA2Ms_szaBjp0amqrF64.65lY-] disk not present in database, Submit result: unrecognized or virtual drive
==== Log checksum 1CD3AFAC6D32A5F3F81BA0A19FD0E7DD8997E4252C01D0F025876993361F665A ====

Содержание индексной карты (.CUE)

REM GENRE Opera
REM DATE 1990
REM DISCID CC0D4E0E
REM COMMENT "ExactAudioCopy v1.0b3"
CATALOG 0809274869029
PERFORMER "Mendelssohn"
TITLE "Walpurgisnacht, Kantate & Kyrie, Corboz"
FILE "Mendelssohn - Walpurgisnacht, Kantate & Kyrie, Corboz.ape" WAVE
TRACK 01 AUDIO
TITLE "Die erste Walpurgisnacht Op. 60 - Ouverture"
PERFORMER "Mendelssohn"
ISRC FRZ208909901
INDEX 01 00:00:00
TRACK 02 AUDIO
TITLE "Die erste Walpurgisnacht Op. 60 - (Chor, Tenor) 'Es lacht der Mai'"
PERFORMER "Mendelssohn"
ISRC FRZ208909902
INDEX 00 09:19:56
INDEX 01 09:23:35
TRACK 03 AUDIO
TITLE "Die erste Walpurgisnacht Op. 60 - (Alt, Chor) 'Könnt ihr so'"
PERFORMER "Mendelssohn"
ISRC FRZ208909903
INDEX 00 13:32:36
INDEX 01 13:36:15
TRACK 04 AUDIO
TITLE "Die erste Walpurgisnacht Op. 60 - (Bariton, Chor) - 'Wer Opfer heut'"
PERFORMER "Mendelssohn"
ISRC FRZ208909904
INDEX 00 16:04:36
INDEX 01 16:08:15
TRACK 05 AUDIO
TITLE "Die erste Walpurgisnacht Op. 60 - (Chor) 'Verteilt euch'"
PERFORMER "Mendelssohn"
ISRC FRZ208909905
INDEX 00 18:24:71
INDEX 01 18:28:50
TRACK 06 AUDIO
TITLE "Die erste Walpurgisnacht Op. 60 - (Bass, Chor) 'Diese dumpfen'"
PERFORMER "Mendelssohn"
ISRC FRZ208909906
INDEX 00 20:13:58
INDEX 01 20:17:37
TRACK 07 AUDIO
TITLE "Die erste Walpurgisnacht Op. 60 - (Chor) 'Kommt mit Zacken'"
PERFORMER "Mendelssohn"
ISRC FRZ208909907
INDEX 00 22:40:58
INDEX 01 22:44:37
TRACK 08 AUDIO
TITLE "Die erste Walpurgisnacht Op. 60 - (Bariton, Chor) 'So weit gebracht'"
PERFORMER "Mendelssohn"
ISRC FRZ208909908
INDEX 00 27:34:61
INDEX 01 27:38:40
TRACK 09 AUDIO
TITLE "Die erste Walpurgisnacht Op. 60 - (Tenor, Chor) 'Hilf, ach hilf mir'"
PERFORMER "Mendelssohn"
ISRC FRZ208909909
INDEX 00 31:25:56
INDEX 01 31:29:35
TRACK 10 AUDIO
TITLE "Die erste Walpurgisnacht Op. 60 - (Bariton, Chor) 'Die Flamme reinigt'"
PERFORMER "Mendelssohn"
ISRC FRZ208909909
INDEX 00 32:37:48
INDEX 01 32:41:27
TRACK 11 AUDIO
TITLE "Choralkantate 'O Haupt voll Blut und Wunden' - I Chorus"
PERFORMER "Mendelssohn"
ISRC FRZ208910000
INDEX 00 35:29:21
INDEX 01 35:37:17
TRACK 12 AUDIO
TITLE "Choralkantate 'O Haupt voll Blut und Wunden' - II Bass Aria"
PERFORMER "Mendelssohn"
ISRC FRZ208910001
INDEX 00 41:19:68
INDEX 01 41:26:07
TRACK 13 AUDIO
TITLE "Choralkantate 'O Haupt voll Blut und Wunden' - III Choral"
PERFORMER "Mendelssohn"
ISRC FRZ208910002
INDEX 00 46:15:11
INDEX 01 46:20:32
TRACK 14 AUDIO
TITLE "Kyrie für Chor und Orchester"
PERFORMER "Mendelssohn"
ISRC FRZ208910003
INDEX 00 48:42:61
INDEX 01 48:48:57
[teatrix.ru].t21103.torrent 
Торрент: Зарегистрирован [ 2016-03-20 00:53 ] · 3BE12A87B52FD62846CF1F325351DBA3F46C0076

Скачать .torrent

Скачать

18 KB

Статус: проверено
Скачан: 2 раз
Размер: 220 MB
terms.php



Быстрый ответ

Имя:

      
Для отправки сообщений необходимо включить JavaScript
Показать сообщения:    

Текущее время: 09-Дек 22:28

Часовой пояс: UTC + 3


Вы можете начинать темы
Вы можете отвечать на сообщения
Вы не можете редактировать свои сообщения
Вы не можете удалять свои сообщения
Вы не можете голосовать в опросах
Вы не можете прикреплять файлы к сообщениям
Вы можете скачивать файлы