(Classical) [LP] [24/48] Г. Малер/G. Mahler - Symphony № 7 in E Minor - New Philarmonia Orchestra (London) - Conductor Otto Klemperer (2LP) - 1980, FLAC (tracks+.cue)


Статистика раздачи [Обновить пиров]
Размер:  1021 MB   |    Зарегистрирован:  8 месяцев 22 дня   |    Скачан:  0 раз

Полного источника не было: Никогда

 
   
 
 
 

[Цитировать]

Г. Малер/G. Mahler - Symphony № 7 in E Minor - New Philarmonia Orchestra (London) - Conductor Otto Klemperer (2LP)
Жанр: Classical
Носитель: LP
Год выпуска: 1980
Лейбл: Melodya (MOZG)
Страна-производитель: USSR
Аудио кодек: FLAC
Тип рипа: tracks+.cue
Формат записи: 32/192
Формат раздачи: 24/48
Продолжительность: 1.39.15 min
Треклист:
01. Langsam (Adagio),Allegro resoluto, ma non troppo
02. Nachtmusik (Allegro moderato)
03. Schattenhaft (fliessend aber nicht schnell)
04. Nachtmusik (Andante amoroso)
05. Rondo-finale (Allegro ordinario)
Источник оцифровки: автором раздачи
Код класса состояния винила: NM
Устройство воспроизведения: Электроника ЭП 017С
Головка звукоснимателя: Audio-Technica AT95
Предварительный усилитель: Бриг-001
АЦП: VIA HD audio device
Программа-оцифровщик: Izotope RX 4 Advanced
Обработка: Izotope RX 4 Advanced

Спектр+АЧХ+Уровень записи

Back, Inside & Disc







DR=13

foobar2000 1.1.10 / Dynamic Range Meter 1.1.1
log date: 2015-05-05 19:25:51
--------------------------------------------------------------------------------
Analyzed: Otto Klemperer / Symphony No. 7 in E Minor
--------------------------------------------------------------------------------
DR Peak RMS Duration Track
--------------------------------------------------------------------------------
DR12 -3.80 dB -20.86 dB 27:23 ?-Langsam (Adagio),Allegro resoluto, ma non troppo
DR16 -2.36 dB -26.53 dB 21:56 ?-Nachtmusik (Allegro moderato)
DR12 -7.04 dB -25.20 dB 10:21 ?-Schattenhaft (fliessend aber nicht schnell)
DR13 -6.59 dB -25.51 dB 15:40 ?-Nachtmusik (Andante amoroso)
DR12 -3.56 dB -20.49 dB 23:55 ?-Rondo-finale (Allegro ordinario)
--------------------------------------------------------------------------------
Number of tracks: 5
Official DR value: DR13
Samplerate: 48000 Hz
Channels: 2
Bits per sample: 24
Bitrate: 1460 kbps
Codec: FLAC
================================================================================
[teatrix.ru].t21105.torrent 
Торрент: Зарегистрирован [ 2016-03-20 00:53 ] · FAD543819B51EC2695A302605A141598DD7FE480

Скачать .torrent

Скачать

21 KB

Статус: проверено
Скачан: 0 раз
Размер: 1021 MB
terms.php



Быстрый ответ

Имя:

      
Для отправки сообщений необходимо включить JavaScript
Показать сообщения:    

Текущее время: 11-Дек 14:58

Часовой пояс: UTC + 3


Вы можете начинать темы
Вы можете отвечать на сообщения
Вы не можете редактировать свои сообщения
Вы не можете удалять свои сообщения
Вы не можете голосовать в опросах
Вы не можете прикреплять файлы к сообщениям
Вы можете скачивать файлы