Рихард Штраус - Электра / Strauss - Elektra (Rysanek, Varnay, Ligendza) Карл Бём / Karl Bohm (Gotz Friedrich) (Norbert Beilharz) [1981, Opera & Documentary, DVDRip-AVC] Sub [Русские • Elena-Rybka][English, Français, Español, Chinese]


 

[Цитировать]

Мне ль этой музыки не слышать,
она же вся во мне ...

В Е Н А, 1981
АВТОР СЦЕНАРИЯ и РЕЖИССЁР Норберт БАЙЛЬХАРЦ
АВТОРСКИЙ ПЕРЕВОД © Elena-Rybka
Субтитры/Subtitles: РУССКИЕ
English, Français, Español, Chinese
Язык: Немецкий
Продолжительность: 92 min.
•••
Качество видео: DVDRip-AVC
Исходник: DVD5 [Спасибо, Poincare]
Формат/Контейнер: MKV
Видео поток: H.264, 698x478, 2383 kbps, 29,970 fps.
Аудио поток: Deutsch, AC3, 224 kbps, 48,0 KHz, 2 ch original
В ФИЛЬМЕ УЧАСТВУЮТ
Карл БЁМ (1894 - 1981) • Гёц ФРИДРИХ и др.
Актёрская импровизация
Мехтильд ГРОССМАНН и Симен РУХААК

Скриншоты


MediaInfo

-

x264.log


avs [info]: 698x478p 8:9 @ 30000/1001 fps (cfr)
x264 [info]: using SAR=8/9
x264 [info]: using cpu capabilities: MMX2 SSE2Fast SSEMisalign LZCNT
x264 [info]: profile High, level 4.1
x264 [info]: frame I:839 Avg QP:19.33 size: 44264
x264 [info]: frame P:36251 Avg QP:20.34 size: 22147
x264 [info]: frame B:128627 Avg QP:22.79 size: 6276
x264 [info]: consecutive B-frames: 1.0% 0.3% 8.5% 28.0% 31.4% 30.8%
x264 [info]: mb I I16..4: 1.8% 89.0% 9.1%
x264 [info]: mb P I16..4: 0.4% 22.1% 0.9% P16..4: 27.4% 34.4% 12.9% 1.5% 0.1% skip: 0.3%
x264 [info]: mb B I16..4: 0.0% 1.5% 0.1% B16..8: 33.7% 20.2% 2.5% direct: 9.5% skip:32.5% L0:31.7% L1:38.8% BI:29.5%
x264 [info]: 8x8 transform intra:93.9% inter:60.3%
x264 [info]: coded y,uvDC,uvAC intra: 96.1% 94.1% 64.1% inter: 33.4% 36.8% 2.8%
x264 [info]: i16 v,h,dc,p: 25% 17% 12% 47%
x264 [info]: i8 v,h,dc,ddl,ddr,vr,hd,vl,hu: 13% 8% 9% 9% 12% 14% 10% 14% 13%
x264 [info]: i4 v,h,dc,ddl,ddr,vr,hd,vl,hu: 13% 8% 4% 8% 15% 16% 12% 12% 11%
x264 [info]: i8c dc,h,v,p: 39% 25% 18% 19%
x264 [info]: Weighted P-Frames: Y:9.7% UV:2.5%
x264 [info]: ref P L0: 36.8% 13.4% 25.7% 8.0% 8.6% 6.1% 1.3% 0.1%
x264 [info]: ref B L0: 85.4% 10.1% 2.5% 1.3% 0.7%
x264 [info]: ref B L1: 97.9% 2.1%
x264 [info]: kb/s:2383.23
-
General
Unique ID : 203978141531779090032055925797115527613 (0x9974C2D5FC2533D58F942B93EA9A01BD)
Complete name : Elektra (Bohm) documentary 1981.mkv
Format : Matroska
Format version : Version 4 / Version 2
File size : 1.68 GiB
Duration : 1h 32mn
Overall bit rate : 2 611 Kbps
Encoded date : UTC 2015-05-05 08:26:30
Writing application : mkvmerge v7.8.0 ('River Man') 32bit built on Mar 27 2015 16:18:02
Writing library : libebml v1.3.1 + libmatroska v1.4.2
DURATION : 01:32:09.376000000
NUMBER_OF_FRAMES : 172793
NUMBER_OF_BYTES : 154822528
_STATISTICS_WRITING_APP : mkvmerge v7.6.0 ('Garden of Dreams') 32bit built on Feb 8 2015 12:51:39
_STATISTICS_WRITING_DATE_UTC : 2015-04-30 15:20:52
_STATISTICS_TAGS : BPS DURATION NUMBER_OF_FRAMES NUMBER_OF_BYTES
Video
ID : 1
Format : AVC
Format/Info : Advanced Video Codec
Format profile : High@L4.1
Format settings, CABAC : Yes
Format settings, ReFrames : 6 frames
Codec ID : V_MPEG4/ISO/AVC
Duration : 1h 32mn
Bit rate : 2 335 Kbps
Width : 698 pixels
Height : 478 pixels
Display aspect ratio : 4:3
Original display aspect ratio : 1.298
Frame rate mode : Constant
Frame rate : 29.970 fps
Color space : YUV
Chroma subsampling : 4:2:0
Bit depth : 8 bits
Scan type : Progressive
Bits/(Pixel*Frame) : 0.234
Stream size : 1.50 GiB (89%)
Writing library : x264 core 130 r2273 b3065e6
Encoding settings : cabac=1 / ref=6 / deblock=1:-3:-3 / analyse=0x3:0x133 / me=hex / subme=11 / psy=1 / psy_rd=1.05:0.15 / mixed_ref=1 / me_range=16 / chroma_me=1 / trellis=2 / 8x8dct=1 / cqm=0 / deadzone=21,11 / fast_pskip=1 / chroma_qp_offset=-3 / threads=3 / lookahead_threads=1 / sliced_threads=0 / nr=0 / decimate=1 / interlaced=0 / bluray_compat=0 / constrained_intra=0 / bframes=5 / b_pyramid=2 / b_adapt=2 / b_bias=0 / direct=1 / weightb=1 / open_gop=0 / weightp=2 / keyint=250 / keyint_min=25 / scenecut=40 / intra_refresh=0 / rc=crf / mbtree=0 / crf=18.4 / qcomp=0.65 / qpmin=0 / qpmax=69 / qpstep=4 / ip_ratio=1.40 / pb_ratio=1.30 / aq=1:0.90
Language : English
Default : Yes
Forced : No
DURATION : 01:32:09.424000000
NUMBER_OF_FRAMES : 165717
NUMBER_OF_BYTES : 1647234374
_STATISTICS_WRITING_APP : mkvmerge v7.6.0 ('Garden of Dreams') 32bit built on Feb 8 2015 12:51:39
_STATISTICS_WRITING_DATE_UTC : 2015-04-30 15:20:52
_STATISTICS_TAGS : BPS DURATION NUMBER_OF_FRAMES NUMBER_OF_BYTES
Audio
ID : 2
Format : AC-3
Format/Info : Audio Coding 3
Mode extension : CM (complete main)
Format settings, Endianness : Big
Codec ID : A_AC3
Duration : 1h 32mn
Bit rate mode : Constant
Bit rate : 224 Kbps
Channel(s) : 2 channels
Channel positions : Front: L R
Sampling rate : 48.0 KHz
Bit depth : 16 bits
Compression mode : Lossy
Stream size : 148 MiB (9%)
Language : German
Default : Yes
Forced : No
Text #1
ID : 3
Format : ASS
Codec ID : S_TEXT/ASS
Codec ID/Info : Advanced Sub Station Alpha
Compression mode : Lossless
Language : Russian
Default : Yes
Forced : No
Text #2
ID : 4
Format : UTF-8
Codec ID : S_TEXT/UTF8
Codec ID/Info : UTF-8 Plain Text
Language : English
Default : No
Forced : No
Text #3
ID : 5
Format : UTF-8
Codec ID : S_TEXT/UTF8
Codec ID/Info : UTF-8 Plain Text
Language : Spanish
Default : No
Forced : No
Text #4
ID : 6
Format : UTF-8
Codec ID : S_TEXT/UTF8
Codec ID/Info : UTF-8 Plain Text
Language : French
Default : No
Forced : No
Text #5
ID : 7
Format : VobSub
Muxing mode : zlib
Codec ID : S_VOBSUB
Codec ID/Info : The same subtitle format used on DVDs
Language : Chinese
Default : No
Forced : No

"Ob ich die musik nicht nöre?
Sie kommt doch aus mir..."
Hugo von Hofmannsthal, ELEKTRA



Показать сообщения:    

Текущее время: 05-Дек 23:34

Часовой пояс: UTC + 3


Вы не можете начинать темы
Вы не можете отвечать на сообщения
Вы не можете редактировать свои сообщения
Вы не можете удалять свои сообщения
Вы не можете голосовать в опросах
Вы не можете прикреплять файлы к сообщениям
Вы не можете скачивать файлы