(Classical) Franz Schubert - Symphony No.6; Rosamunde - Swedish Chamber Orchestra, Thomas Dausgaard - 2013, FLAC (image+.cue) lossless


 

[Цитировать]

Franz Schubert - Symphony No.6; Rosamunde - Swedish Chamber Orchestra, Thomas Dausgaard
Жанр: Classical
Страна-производитель диска: Sweden
Год издания диска: 2013
Издатель (лейбл): BIS
Номер по каталогу: BIS-SACD-1987
Дата записи: 2012
Аудиокодек: FLAC
Тип рипа: image+.cue
Битрейт аудио: lossless
Продолжительность: 62:46
Источник: собственный рип
Наличие сканов в содержимом раздачи: да
Треклист:
Franz Schubert (1797–1828)
[1]-[4] Symphony No. 6 in C major, D 589 (1817–18)
‘Little C major’
[5]-[9] Rosamunde, incidental music (selection), D 797 (1823)
Исполнители:
Swedish Chamber Orchestra, Örebro
Thomas Dausgaard
conductor

Лог создания рипа

Exact Audio Copy V1.0 beta 3 from 29. August 2011
EAC extraction logfile from 3. January 2015, 21:54
Swedish Chamber Orchestra, Thomas Dausgaard / Schubert - Symphony No.6; Rosamunde
Used drive : HL-DT-STDVDRAM GU70N Adapter: 0 ID: 0
Read mode : Secure
Utilize accurate stream : Yes
Defeat audio cache : Yes
Make use of C2 pointers : No
Read offset correction : 48
Overread into Lead-In and Lead-Out : No
Fill up missing offset samples with silence : Yes
Delete leading and trailing silent blocks : No
Null samples used in CRC calculations : Yes
Used interface : Native Win32 interface for Win NT & 2000
Used output format : User Defined Encoder
Selected bitrate : 128 kBit/s
Quality : High
Add ID3 tag : No
Command line compressor : C:\Program Files (x86)\Exact Audio Copy\Flac\flac.exe
Additional command line options : -V -8 -T "Date=%year%" -T "Genre=%genre%" %source%
TOC of the extracted CD
Track | Start | Length | Start sector | End sector
---------------------------------------------------------
1 | 0:00.00 | 9:08.17 | 0 | 41116
2 | 9:08.17 | 6:12.63 | 41117 | 69079
3 | 15:21.05 | 6:09.59 | 69080 | 96813
4 | 21:30.64 | 9:01.15 | 96814 | 137403
5 | 30:32.04 | 7:50.01 | 137404 | 172654
6 | 38:22.05 | 6:30.67 | 172655 | 201971
7 | 44:52.72 | 2:59.26 | 201972 | 215422
8 | 47:52.23 | 7:12.65 | 215423 | 247887
9 | 55:05.13 | 7:41.55 | 247888 | 282517
Range status and errors
Selected range
Filename C:\temp\BIS-SACD-1987 - Schubert - Symphony No.6; Rosamunde\Schubert - Symphony No.6; Rosamunde.wav
Peak level 93.5 %
Extraction speed 2.2 X
Range quality 100.0 %
Test CRC 30E168EB
Copy CRC 30E168EB
Copy OK
No errors occurred
AccurateRip summary
Track 1 accurately ripped (confidence 4) [49E7BB1D] (AR v2)
Track 2 accurately ripped (confidence 4) [1791D015] (AR v2)
Track 3 accurately ripped (confidence 4) [44DC8214] (AR v2)
Track 4 accurately ripped (confidence 4) [F3898540] (AR v2)
Track 5 accurately ripped (confidence 4) [44457873] (AR v2)
Track 6 accurately ripped (confidence 4) [8CBE6C3D] (AR v2)
Track 7 accurately ripped (confidence 4) [8229E86B] (AR v2)
Track 8 accurately ripped (confidence 4) [070B20C7] (AR v2)
Track 9 accurately ripped (confidence 4) [96864C67] (AR v2)
All tracks accurately ripped
End of status report
==== Log checksum 234A5BE8D747DDE70C82E874479F6CF555DAC01B7D6AB4D62A3E47D589AE00E0 ====



Показать сообщения:    

Текущее время: 08-Дек 07:09

Часовой пояс: UTC + 3


Вы не можете начинать темы
Вы не можете отвечать на сообщения
Вы не можете редактировать свои сообщения
Вы не можете удалять свои сообщения
Вы не можете голосовать в опросах
Вы не можете прикреплять файлы к сообщениям
Вы не можете скачивать файлы