Руки Вверх. Маёвка лайв / Эфир от 01.05.2015 / Музыка Первого [01.05.2015, Документальный, Музыка, DVB]


Статистика раздачи [Обновить пиров]
Размер:  4.98 GB   |    Зарегистрирован:  8 месяцев 16 дней   |    Скачан:  0 раз

Полного источника не было: Никогда

 
   
 
 
 

[Цитировать]

-Руки Вверх. Маёвка лайв / Эфир от 01.05.2015-Жанр: Документальный, Музыка
Дата/Год выпуска: 01.05.2015
Язык комментариев: Русский
Перевод: Не требуется
Телеканал: Музыка Первого

-Автор рипа/записи: Arsenal15-Качество: DVB
Формат видео: ts
Видео: 720х576@1024х576 (16:9), 25,000 кадров/сек, MPEG2, ~5000 Кбит/сек
Аудио: 48,0 КГц, MP2, 2 ch, ~192 Кбит/сек
-

Продолжительность

02:08:54
-

MediaInfo

General
Идентификатор : 1 (0x1)
Полное имя : E:\Мои релизы\Руки Вверх. Маёвка лайв Эфир от 01.05.2015 Музыка Первого.ts
Формат : MPEG-TS
Размер файла : 4.98 GiB
Продолжительность : 2h 8mn
Режим общего битрейта : Variable
Общий поток : 5 532 Kbps
Video
Идентификатор : 4096 (0x1000)
Идентификатор меню : 1 (0x1)
Формат : MPEG Video
Версия формата : Version 2
Профиль формата : Main@Main
Параметр BVOP формата : Yes
Параметр матрицы формата : Default
Параметр GOP формата : M=3, N=15
Идентификатор кодека : 2
Продолжительность : 2h 8mn
Вид битрейта : Variable
Битрейт : 5 064 Kbps
Максимальный битрейт : 5 120 Kbps
Ширина : 720 pixels
Высота : 576 pixels
Соотношение сторон : 16:9
Частота кадров : 25.000 fps
Стандарт вещания : PAL
Цветовое пространство : YUV
Субдискретизация насыщенности : 4:2:0
Битовая глубина : 8 bits
Тип развёртки : Progressive
Порядок развёртки : Top Field First
Метод сжатия : Lossy
Бит/(Пиксели*Кадры) : 0.488
Размер потока : 4.56 GiB (92%)
Color primaries : BT.601 PAL
Transfer characteristics : BT.470 System B, BT.470 System G
Matrix coefficients : BT.601
Audio
Идентификатор : 4097 (0x1001)
Идентификатор меню : 1 (0x1)
Формат : MPEG Audio
Версия формата : Version 1
Профиль формата : Layer 2
Идентификатор кодека : 3
Продолжительность : 2h 8mn
Вид битрейта : Constant
Битрейт : 192 Kbps
Каналы : 2 channels
Частота : 48.0 KHz
Метод сжатия : Lossy
Задержка видео : 15ms
Размер потока : 177 MiB (3%)
Язык : English
- -
[teatrix.ru].t21110.torrent 
Торрент: Зарегистрирован [ 2016-03-20 00:53 ] · F2AD48BCCFDA5FBE1083B3D364162DC47EE91A4C

Скачать .torrent

Скачать

25 KB

Статус: проверено
Скачан: 0 раз
Размер: 4.98 GB
terms.php



Быстрый ответ

Имя:

      
Для отправки сообщений необходимо включить JavaScript
Показать сообщения:    

Текущее время: 05-Дек 23:40

Часовой пояс: UTC + 3


Вы можете начинать темы
Вы можете отвечать на сообщения
Вы не можете редактировать свои сообщения
Вы не можете удалять свои сообщения
Вы не можете голосовать в опросах
Вы не можете прикреплять файлы к сообщениям
Вы можете скачивать файлы