(Opera) Claude Debussy - Pelleas et Melisande / Клод Дебюсси - Пеллеас и Мелизанда (Herbert von Karajan; Frederica von Stade, Richard Stilwell, Jose van Dam, Ruggero Raimondi, Nadine Denize), 1978 - studio recording / 1999, FLAC(tracks),lossless


 

[Цитировать]

Claude Debussy - Pelléas et Mélisande / Клод Дебюсси - Пеллеас и Мелизанда (Herbert von Karajan; Frederica von Stade, Richard Stilwell, José van Dam, Ruggero Raimondi, Nadine Denize)
Жанр: Opera
Страна-производитель диска: Англия
Год издания диска: 1999
Издатель (лейбл): EMI Classics
Дата записи: 1978
Аудиокодек: FLAC
Тип рипа: tracks
Битрейт аудио: lossless
Продолжительность: 162:38
Источник: релизер (Davide)
Наличие сканов в содержимом раздачи: да
Исполнители:
Mélisande - Frederica von Stade,
Pélleas - Richard Stilwell,
Golaud - José van Dam,
Arkel - Ruggero Raimondi,
Yniold - Nadine Denize.
Herbert von Karajan, Conductor,
Berliner Philharmoniker,
Chorus of Deutschen Oper Berlin.
Recorded at Philharmonie, Berlin, December, 1978.

Лог создания рипаЛог создания рипа CD 1

Exact Audio Copy V1.0 beta 3 from 29. August 2011
EAC extraction logfile from 28. April 2015, 0:28
Berliner Philharmoniker, Herbert von Karajan / Pelléas et Mélisande - CD 1
Used drive : hp DVDRW DU8A5SHL Adapter: 0 ID: 0
Read mode : Secure
Utilize accurate stream : Yes
Defeat audio cache : Yes
Make use of C2 pointers : No
Read offset correction : 6
Overread into Lead-In and Lead-Out : No
Fill up missing offset samples with silence : Yes
Delete leading and trailing silent blocks : No
Null samples used in CRC calculations : Yes
Used interface : Native Win32 interface for Win NT & 2000
Used output format : User Defined Encoder
Selected bitrate : 768 kBit/s
Quality : High
Add ID3 tag : No
Command line compressor : C:\Program Files (x86)\Exact Audio Copy\FLAC\FLAC.EXE
Additional command line options : -6 -V -T "ARTIST=%artist%" -T "TITLE=%title%" -T "ALBUM=%albumtitle%" -T "DATE=%year%" -T "TRACKNUMBER=%tracknr%" -T "GENRE=%genre%" -T "COMMENT=%comment%" -T "BAND=%albuminterpret%" -T "ALBUMARTIST=%albuminterpret%" -T "COMPOSER=%composer%" %haslyrics%--tag-from-file=LYRICS="%lyricsfile%"%haslyrics% -T "DISCNUMBER=%cdnumber%" -T "TOTALDISCS=%totalcds%" -T "TOTALTRACKS=%numtracks%" %hascover%--picture="%coverfile%"%hascover% %source% -o %dest%
TOC of the extracted CD
Track | Start | Length | Start sector | End sector
---------------------------------------------------------
1 | 0:00.33 | 5:53.27 | 33 | 26534
2 | 5:53.60 | 7:31.48 | 26535 | 60407
3 | 13:25.33 | 3:06.47 | 60408 | 74404
4 | 16:32.05 | 3:45.25 | 74405 | 91304
5 | 20:17.30 | 3:59.18 | 91305 | 109247
6 | 24:16.48 | 2:16.30 | 109248 | 119477
7 | 26:33.03 | 4:04.17 | 119478 | 137794
8 | 30:37.20 | 3:42.05 | 137795 | 154449
9 | 34:19.25 | 6:31.73 | 154450 | 183847
10 | 40:51.23 | 2:48.70 | 183848 | 196517
11 | 43:40.18 | 6:28.10 | 196518 | 225627
12 | 50:08.28 | 5:35.02 | 225628 | 250754
13 | 55:43.30 | 4:51.30 | 250755 | 272609
Track 1
Filename G:\BLOGGER\AA CD RIPPATI\Debussy Pelléas et Mélisande Karajan 1978\CD1\01 Act 1_ 1_ Je ne pourrai plus sortir de cette forêt.wav
Peak level 67.8 %
Extraction speed 1.2 X
Track quality 100.0 %
Copy CRC 608F777F
Accurately ripped (confidence 7) [419BFFE2] (AR v2)
Copy OK
Track 2
Filename G:\BLOGGER\AA CD RIPPATI\Debussy Pelléas et Mélisande Karajan 1978\CD1\02 Act 1_ 1_ Qu'est-ce qui brille ainsi, au fond de l'eau.wav
Peak level 71.0 %
Extraction speed 1.5 X
Track quality 100.0 %
Copy CRC 11E20B4F
Accurately ripped (confidence 8) [0C5F4347] (AR v2)
Copy OK
Track 3
Filename G:\BLOGGER\AA CD RIPPATI\Debussy Pelléas et Mélisande Karajan 1978\CD1\03 Act 1_ 2_ Voici ce qu'il écrit à son frère Pelléas.wav
Peak level 30.7 %
Extraction speed 1.4 X
Track quality 100.0 %
Copy CRC 344D7577
Accurately ripped (confidence 8) [F033453A] (AR v2)
Copy OK
Track 4
Filename G:\BLOGGER\AA CD RIPPATI\Debussy Pelléas et Mélisande Karajan 1978\CD1\04 Act 1_ 2_ Je n'en dis rien.wav
Peak level 68.6 %
Extraction speed 1.6 X
Track quality 100.0 %
Copy CRC 1C0FF8D6
Accurately ripped (confidence 8) [9977B8B9] (AR v2)
Copy OK
Track 5
Filename G:\BLOGGER\AA CD RIPPATI\Debussy Pelléas et Mélisande Karajan 1978\CD1\05 Act 1_ 2_ Grand-père, j'ai reçu en même temps que la lettre de mon frère.wav
Peak level 45.0 %
Extraction speed 1.7 X
Track quality 100.0 %
Copy CRC 5732BB53
Accurately ripped (confidence 8) [71E96D2C] (AR v2)
Copy OK
Track 6
Filename G:\BLOGGER\AA CD RIPPATI\Debussy Pelléas et Mélisande Karajan 1978\CD1\06 Act 1_ 3_ Il fait sombre dans les jardins.wav
Peak level 63.9 %
Extraction speed 1.6 X
Track quality 100.0 %
Copy CRC 13802E74
Accurately ripped (confidence 8) [E7428816] (AR v2)
Copy OK
Track 7
Filename G:\BLOGGER\AA CD RIPPATI\Debussy Pelléas et Mélisande Karajan 1978\CD1\07 Act 1_ 3_ Hoé! Hisse hoé! Hoé! Hoé!.wav
Peak level 46.8 %
Extraction speed 1.8 X
Track quality 100.0 %
Copy CRC A537EA18
Accurately ripped (confidence 8) [3382CC65] (AR v2)
Copy OK
Track 8
Filename G:\BLOGGER\AA CD RIPPATI\Debussy Pelléas et Mélisande Karajan 1978\CD1\08 Act 2_ 1_ Vous ne savez pas où je vous ai menée.wav
Peak level 31.2 %
Extraction speed 1.6 X
Track quality 99.9 %
Copy CRC E0639DE3
Accurately ripped (confidence 8) [D7566B01] (AR v2)
Copy OK
Track 9
Filename G:\BLOGGER\AA CD RIPPATI\Debussy Pelléas et Mélisande Karajan 1978\CD1\09 Act 2_ 1_ C'est au bord d'une fontaine aussi qu'il vous a trouvée.wav
Peak level 54.2 %
Extraction speed 2.1 X
Track quality 100.0 %
Copy CRC B02C2AB0
Accurately ripped (confidence 8) [78AD6333] (AR v2)
Copy OK
Track 10
Filename G:\BLOGGER\AA CD RIPPATI\Debussy Pelléas et Mélisande Karajan 1978\CD1\10 Act 2_ 2_ Ah! Ah! Tout va bien, cela ne sera rien.wav
Peak level 65.9 %
Extraction speed 1.9 X
Track quality 100.0 %
Copy CRC 54088292
Accurately ripped (confidence 8) [BAD6A3E7] (AR v2)
Copy OK
Track 11
Filename G:\BLOGGER\AA CD RIPPATI\Debussy Pelléas et Mélisande Karajan 1978\CD1\11 Act 2_ 2_ Je suis... je suis malade ici.wav
Peak level 62.7 %
Extraction speed 2.3 X
Track quality 100.0 %
Copy CRC 4D3E4E80
Accurately ripped (confidence 8) [9203B2CC] (AR v2)
Copy OK
Track 12
Filename G:\BLOGGER\AA CD RIPPATI\Debussy Pelléas et Mélisande Karajan 1978\CD1\12 Act 2_ 2_ Tiens, où est l'anneau que je t'avais donné.wav
Peak level 98.0 %
Extraction speed 2.3 X
Track quality 100.0 %
Copy CRC 7D80F371
Accurately ripped (confidence 8) [7DC0A4DC] (AR v2)
Copy OK
Track 13
Filename G:\BLOGGER\AA CD RIPPATI\Debussy Pelléas et Mélisande Karajan 1978\CD1\13 Act 2_ 3_ Oui, c'est ici, nous y sommes.wav
Peak level 32.4 %
Extraction speed 2.4 X
Track quality 100.0 %
Copy CRC 7B540870
Accurately ripped (confidence 8) [6360EA4B] (AR v2)
Copy OK
All tracks accurately ripped
No errors occurred
End of status report

Лог создания рипа CD 2

Exact Audio Copy V1.0 beta 3 from 29. August 2011
EAC extraction logfile from 28. April 2015, 1:03
Berliner Philharmoniker, Herbert von Karajan / Pelléas et Mélisande - CD 2
Used drive : hp DVDRW DU8A5SHL Adapter: 0 ID: 0
Read mode : Secure
Utilize accurate stream : Yes
Defeat audio cache : Yes
Make use of C2 pointers : No
Read offset correction : 6
Overread into Lead-In and Lead-Out : No
Fill up missing offset samples with silence : Yes
Delete leading and trailing silent blocks : No
Null samples used in CRC calculations : Yes
Used interface : Native Win32 interface for Win NT & 2000
Used output format : User Defined Encoder
Selected bitrate : 768 kBit/s
Quality : High
Add ID3 tag : No
Command line compressor : C:\Program Files (x86)\Exact Audio Copy\FLAC\FLAC.EXE
Additional command line options : -6 -V -T "ARTIST=%artist%" -T "TITLE=%title%" -T "ALBUM=%albumtitle%" -T "DATE=%year%" -T "TRACKNUMBER=%tracknr%" -T "GENRE=%genre%" -T "COMMENT=%comment%" -T "BAND=%albuminterpret%" -T "ALBUMARTIST=%albuminterpret%" -T "COMPOSER=%composer%" %haslyrics%--tag-from-file=LYRICS="%lyricsfile%"%haslyrics% -T "DISCNUMBER=%cdnumber%" -T "TOTALDISCS=%totalcds%" -T "TOTALTRACKS=%numtracks%" %hascover%--picture="%coverfile%"%hascover% %source% -o %dest%
TOC of the extracted CD
Track | Start | Length | Start sector | End sector
---------------------------------------------------------
1 | 0:00.33 | 5:16.72 | 33 | 23804
2 | 5:17.30 | 2:53.65 | 23805 | 36844
3 | 8:11.20 | 7:20.45 | 36845 | 69889
4 | 15:31.65 | 2:14.55 | 69890 | 79994
5 | 17:46.45 | 6:03.73 | 79995 | 107292
6 | 23:50.43 | 6:33.22 | 107293 | 136789
7 | 30:23.65 | 4:01.45 | 136790 | 154909
Track 1
Filename G:\BLOGGER\AA CD RIPPATI\Debussy Pelléas et Mélisande Karajan 1978\CD2\01 Act 3_ 1_ Mes longs cheveux descendent.wav
Peak level 55.2 %
Extraction speed 1.1 X
Track quality 100.0 %
Copy CRC 84742533
Accurately ripped (confidence 8) [4F23EEA3] (AR v2)
Copy OK
Track 2
Filename G:\BLOGGER\AA CD RIPPATI\Debussy Pelléas et Mélisande Karajan 1978\CD2\02 Act 3_ 1_ Oh! Oh! Mes cheveux descendent de la tour!.wav
Peak level 57.6 %
Extraction speed 1.2 X
Track quality 100.0 %
Copy CRC 9140C400
Accurately ripped (confidence 8) [06894A8F] (AR v2)
Copy OK
Track 3
Filename G:\BLOGGER\AA CD RIPPATI\Debussy Pelléas et Mélisande Karajan 1978\CD2\03 Act 3_ 1_ Je les noue, je les noue aux branches du saule.wav
Peak level 38.1 %
Extraction speed 1.4 X
Track quality 100.0 %
Copy CRC 086C31C2
Accurately ripped (confidence 8) [8D6E46A3] (AR v2)
Copy OK
Track 4
Filename G:\BLOGGER\AA CD RIPPATI\Debussy Pelléas et Mélisande Karajan 1978\CD2\04 Act 3_ 2_ Prenez garde_ Par ici, par ici.wav
Peak level 51.7 %
Extraction speed 1.3 X
Track quality 100.0 %
Copy CRC F6911675
Accurately ripped (confidence 8) [6F82E71D] (AR v2)
Copy OK
Track 5
Filename G:\BLOGGER\AA CD RIPPATI\Debussy Pelléas et Mélisande Karajan 1978\CD2\05 Act 3_ 3_ Ah! Je respire enfin!.wav
Peak level 72.0 %
Extraction speed 1.6 X
Track quality 100.0 %
Copy CRC 26436E07
Accurately ripped (confidence 8) [571C2D96] (AR v2)
Copy OK
Track 6
Filename G:\BLOGGER\AA CD RIPPATI\Debussy Pelléas et Mélisande Karajan 1978\CD2\06 Act 3_ 4_ Viens, nous allons nous asseoir ici, Yniold.wav
Peak level 56.3 %
Extraction speed 1.8 X
Track quality 100.0 %
Copy CRC 4E4A08A8
Accurately ripped (confidence 8) [C5AE2695] (AR v2)
Copy OK
Track 7
Filename G:\BLOGGER\AA CD RIPPATI\Debussy Pelléas et Mélisande Karajan 1978\CD2\07 Act 3_ 4_ Ah! Ah! Petite mère a allumé sa lampe.wav
Peak level 85.1 %
Extraction speed 1.8 X
Track quality 100.0 %
Copy CRC 0602DD39
Accurately ripped (confidence 8) [190ACC59] (AR v2)
Copy OK
All tracks accurately ripped
No errors occurred
End of status report

Лог создания рипа CD 3

Exact Audio Copy V1.0 beta 3 from 29. August 2011
EAC extraction logfile from 28. April 2015, 1:45
Berliner Philharmoniker, Herbert von Karajan / Pelléas et Mélisande - CD 3
Used drive : hp DVDRW DU8A5SHL Adapter: 0 ID: 0
Read mode : Secure
Utilize accurate stream : Yes
Defeat audio cache : Yes
Make use of C2 pointers : No
Read offset correction : 6
Overread into Lead-In and Lead-Out : No
Fill up missing offset samples with silence : Yes
Delete leading and trailing silent blocks : No
Null samples used in CRC calculations : Yes
Used interface : Native Win32 interface for Win NT & 2000
Used output format : User Defined Encoder
Selected bitrate : 768 kBit/s
Quality : High
Add ID3 tag : No
Command line compressor : C:\Program Files (x86)\Exact Audio Copy\FLAC\FLAC.EXE
Additional command line options : -6 -V -T "ARTIST=%artist%" -T "TITLE=%title%" -T "ALBUM=%albumtitle%" -T "DATE=%year%" -T "TRACKNUMBER=%tracknr%" -T "GENRE=%genre%" -T "COMMENT=%comment%" -T "BAND=%albuminterpret%" -T "ALBUMARTIST=%albuminterpret%" -T "COMPOSER=%composer%" %haslyrics%--tag-from-file=LYRICS="%lyricsfile%"%haslyrics% -T "DISCNUMBER=%cdnumber%" -T "TOTALDISCS=%totalcds%" -T "TOTALTRACKS=%numtracks%" %hascover%--picture="%coverfile%"%hascover% %source% -o %dest%
TOC of the extracted CD
Track | Start | Length | Start sector | End sector
---------------------------------------------------------
1 | 0:00.33 | 4:00.67 | 33 | 18099
2 | 4:01.25 | 5:15.43 | 18100 | 41767
3 | 9:16.68 | 0:55.07 | 41768 | 45899
4 | 10:12.00 | 11:12.55 | 45900 | 96354
5 | 21:24.55 | 4:05.10 | 96355 | 114739
6 | 25:29.65 | 6:11.45 | 114740 | 142609
7 | 31:41.35 | 4:10.18 | 142610 | 161377
8 | 35:51.53 | 4:37.37 | 161378 | 182189
9 | 40:29.15 | 3:43.03 | 182190 | 198917
10 | 44:12.18 | 4:08.72 | 198918 | 217589
11 | 48:21.15 | 4:46.18 | 217590 | 239057
12 | 53:07.33 | 2:19.52 | 239058 | 249534
13 | 55:27.10 | 2:48.40 | 249535 | 262174
14 | 58:15.50 | 2:37.33 | 262175 | 273982
15 | 60:53.08 | 6:16.42 | 273983 | 302224
Track 1
Filename G:\BLOGGER\AA CD RIPPATI\Debussy Pelléas et Mélisande Karajan 1978\CD3\01 Act 4_ 1_ Où vas-tu Il faut que je te parle ce soir.wav
Peak level 32.9 %
Extraction speed 1.2 X
Track quality 100.0 %
Copy CRC BEABE620
Accurately ripped (confidence 8) [422745D6] (AR v2)
Copy OK
Track 2
Filename G:\BLOGGER\AA CD RIPPATI\Debussy Pelléas et Mélisande Karajan 1978\CD3\02 Act 4_ 2_ Maintenant que le père de Pelléas est sauvé.wav
Peak level 66.7 %
Extraction speed 1.2 X
Track quality 99.9 %
Copy CRC 17C479F0
Accurately ripped (confidence 8) [07E4B1FB] (AR v2)
Copy OK
Track 3
Filename G:\BLOGGER\AA CD RIPPATI\Debussy Pelléas et Mélisande Karajan 1978\CD3\03 Act 4_ 2_ Pelléas part ce soir.wav
Peak level 64.3 %
Extraction speed 0.7 X
Track quality 99.8 %
Copy CRC DF438637
Accurately ripped (confidence 8) [281903DC] (AR v2)
Copy OK
Track 4
Filename G:\BLOGGER\AA CD RIPPATI\Debussy Pelléas et Mélisande Karajan 1978\CD3\04 Act 4_ 2_ Apporte-la.wav
Peak level 93.3 %
Extraction speed 1.8 X
Track quality 100.0 %
Copy CRC 0C6F2D7C
Accurately ripped (confidence 8) [48722FB6] (AR v2)
Copy OK
Track 5
Filename G:\BLOGGER\AA CD RIPPATI\Debussy Pelléas et Mélisande Karajan 1978\CD3\05 Act 4_ 3_ Oh! Cette pierre est lourde.wav
Peak level 49.3 %
Extraction speed 1.8 X
Track quality 100.0 %
Copy CRC C0E51985
Accurately ripped (confidence 8) [96154431] (AR v2)
Copy OK
Track 6
Filename G:\BLOGGER\AA CD RIPPATI\Debussy Pelléas et Mélisande Karajan 1978\CD3\06 Act 4_ 4_ C'est le dernier soir.wav
Peak level 50.5 %
Extraction speed 2.0 X
Track quality 100.0 %
Copy CRC 645F2F5B
Accurately ripped (confidence 7) [446F18E0] (AR v2)
Copy OK
Track 7
Filename G:\BLOGGER\AA CD RIPPATI\Debussy Pelléas et Mélisande Karajan 1978\CD3\07 Act 4_ 4_ On dirait que ta voix a passé sur la mer au printemps!.wav
Peak level 84.9 %
Extraction speed 2.0 X
Track quality 100.0 %
Copy CRC 8C667EC5
Accurately ripped (confidence 7) [98450C2D] (AR v2)
Copy OK
Track 8
Filename G:\BLOGGER\AA CD RIPPATI\Debussy Pelléas et Mélisande Karajan 1978\CD3\08 Act 4_ 4_ Quel est ce bruit On ferme les portes.wav
Peak level 88.7 %
Extraction speed 2.1 X
Track quality 100.0 %
Copy CRC FC0B0FA9
Accurately ripped (confidence 7) [E0F256BF] (AR v2)
Copy OK
Track 9
Filename G:\BLOGGER\AA CD RIPPATI\Debussy Pelléas et Mélisande Karajan 1978\CD3\09 Act 5_ 1_ Ce n'est pas de cette petite blessure qu'elle peut mourir.wav
Peak level 45.8 %
Extraction speed 2.2 X
Track quality 100.0 %
Copy CRC 93ACAE0D
Accurately ripped (confidence 7) [8FCD5FDF] (AR v2)
Copy OK
Track 10
Filename G:\BLOGGER\AA CD RIPPATI\Debussy Pelléas et Mélisande Karajan 1978\CD3\10 Act 5_ 1_ Ouvrez la fenêtre, ouvrez la fenêtre.wav
Peak level 34.6 %
Extraction speed 2.0 X
Track quality 99.9 %
Copy CRC 03C918BF
Accurately ripped (confidence 7) [40812554] (AR v2)
Copy OK
Track 11
Filename G:\BLOGGER\AA CD RIPPATI\Debussy Pelléas et Mélisande Karajan 1978\CD3\11 Act 5_ 1_ Mélisande... Mélisande... Est-ce vous, Golaud.wav
Peak level 96.7 %
Extraction speed 2.4 X
Track quality 100.0 %
Copy CRC BFDA7B07
Accurately ripped (confidence 7) [D99EBDD4] (AR v2)
Copy OK
Track 12
Filename G:\BLOGGER\AA CD RIPPATI\Debussy Pelléas et Mélisande Karajan 1978\CD3\12 Act 5_ 1_ Non, non, nous n'avons pas été coupables.wav
Peak level 80.2 %
Extraction speed 2.2 X
Track quality 100.0 %
Copy CRC 86EBAEBC
Accurately ripped (confidence 7) [1D93D633] (AR v2)
Copy OK
Track 13
Filename G:\BLOGGER\AA CD RIPPATI\Debussy Pelléas et Mélisande Karajan 1978\CD3\13 Act 5_ 1_ Qu'avez-vous fait Vous allez la tuer.wav
Peak level 81.4 %
Extraction speed 2.3 X
Track quality 100.0 %
Copy CRC FD34B7EC
Accurately ripped (confidence 7) [694A61F6] (AR v2)
Copy OK
Track 14
Filename G:\BLOGGER\AA CD RIPPATI\Debussy Pelléas et Mélisande Karajan 1978\CD3\14 Act 5_ 1_ Qu'y-a-t-il Qu'est-ce que toutes ces femmes viennent faire ici.wav
Peak level 78.4 %
Extraction speed 2.3 X
Track quality 100.0 %
Copy CRC 9DAD02D4
Accurately ripped (confidence 7) [9FB261FF] (AR v2)
Copy OK
Track 15
Filename G:\BLOGGER\AA CD RIPPATI\Debussy Pelléas et Mélisande Karajan 1978\CD3\15 Act 5_ 1_ Attention... attention.wav
Peak level 41.8 %
Extraction speed 2.6 X
Track quality 100.0 %
Copy CRC 4EC4D8A6
Accurately ripped (confidence 7) [2575AB83] (AR v2)
Copy OK
All tracks accurately ripped
No errors occurred
End of status report

Треклист

Disc 1:
Act I:
1. Scene 1. Je ne pourrai plus sortir de cette forêt
2. Scene 1. Qu'est-ce qui brille ainsi, au fond de l'eau?
3. Scene 2. Voici ce qu'il écrit à son frère Pelléas: 'Un soir, je l'ai trouvée'
4. Scene 2. Je n'en dis rien
5. Scene 2. Grand-père, j'ai reçu en même temps que la lettre de mon frère
6. Scene 3. Il fait sombre dans les jardins
7. Scene 3. Hoé! Hisse hoé! Hoé! Hoé!
Act II:
8. Scene 1 Vous ne savez pas où je vous ai menée?
9. Scene 1 C'est au bord d'une fontaine aussi qu'il vous a trouvée?
10. Scene 2. Ah! Ah! Tout va bien, cela ne sera rien
11. Scene 2. Je suis... je suis malade ici
12. Scene 2. Tiens, où est l'anneau que je t'avais donné?
13. Scene 3. Oui, c'est ici, nous y sommes
Disc 2:
Act III:
1. Scene 1. Mes longs cheveux descendent
2. Scene 1. Oh! Oh! Mes cheveux descendent de la tour!
3. Scene 1. Je les noue, je les noue aux branches du saule
4. Scene 2. Prenez garde; par ici, par ici
5. Scene 3. Ah! Je respire enfin!
6. Scene 4. Viens, nous allons nous asseoir ici, Ynold
7. Scene 4. Ah! Ah! Petite mère a allumé sa lampe
Disc 3:
Act IV:
1. Scene 1. Où vas-tu? Il faut que je te parle ce soir
2. Scene 2. Maintenant que le père de Pelléas est sauvé
3. Scene 2. Pelléas part ce soir
4. Scene 2. Apporte-la
5. Scene 3. Oh! Cette pierre est lourde
6. Scene 4. C'est le dernier soir
7. Scene 4. On dirait que ta voix a passé sur la mer au printemps!
8. Scene 4. Quel est ce bruit? On ferme les portes
Act V:
9. Ce n'est pas de cette petite blessure qu'elle peut mourir
10. Ouvrez le fenetre!
11. Mélisande!
12. Non, non, nous n'avons pas ete coupables
13. Qu'avez-vous fait? Vous allez la tuer
14. Qu'y a-t-il? Qu'est-ce que toutes ces femmes viennent faire cici?
15. Attention... attention



Показать сообщения:    

Текущее время: 07-Дек 13:36

Часовой пояс: UTC + 3


Вы не можете начинать темы
Вы не можете отвечать на сообщения
Вы не можете редактировать свои сообщения
Вы не можете удалять свои сообщения
Вы не можете голосовать в опросах
Вы не можете прикреплять файлы к сообщениям
Вы не можете скачивать файлы