(Classical) [LP] [24/48] W. A. Mozart - Sonatas For Violin And Piano - Arthur Grumiaux - Violin - 1980, FLAC (tracks+.cue)


Статистика раздачи [Обновить пиров]
Размер:  506 MB   |    Зарегистрирован:  8 месяцев 15 дней   |    Скачан:  0 раз

Полного источника не было: Никогда

 
   
 
 
 

[Цитировать]

W. A. Mozart - Sonatas For Violin And Piano - Arthur Grumiaux - Violin
Жанр: Classical
Носитель: LP
Год выпуска: 1980
Лейбл: Melodya (MOZG)
Страна-производитель: USSR
Аудио кодек: FLAC
Тип рипа: tracks+.cue
Формат записи: 32/192
Формат раздачи: 24/48
Продолжительность: 51.03 min
Треклист:
Sonata In G Major KV-301
01. Allegro con spirito
02. Allegro
Sonata In B Flat Major KV-378
03. Allegro moderato
04. Andantino sostenuto e cantabile
05. Rondeau. Allegro
Sonata In E Minor KV-304
06. Allegro
07. Tempo di Menuetto
Sonata In F Major KV-376
08. Allegro
09. Andante
10. Rondo.Allegro grazioso
Clara Haskil, piano
Источник оцифровки: автором раздачи
Код класса состояния винила: NM
Устройство воспроизведения: Электроника ЭП 017С
Головка звукоснимателя: Audio-Technica AT95
Предварительный усилитель: Бриг-001
АЦП: VIA HD audio device
Программа-оцифровщик: Izotope RX 4 Advanced
Обработка: Izotope RX 4 Advanced

Спектр+АЧХ+Уровень записи

DR=13

foobar2000 1.1.10 / Dynamic Range Meter 1.1.1
log date: 2015-05-06 20:06:49
--------------------------------------------------------------------------------
Analyzed: Arthur Grumiaux / The World’s Leading Interpreters Of Music
--------------------------------------------------------------------------------
DR Peak RMS Duration Track
--------------------------------------------------------------------------------
DR12 -3.76 dB -19.22 dB 5:29 ?-Allegro con spirito
DR12 -4.73 dB -20.87 dB 5:00 ?-Allegro
DR12 -5.45 dB -21.23 dB 5:54 ?-Allegro moderato
DR13 -5.91 dB -23.64 dB 4:43 ?-Andantino sostenuto e cantabile
DR10 -5.41 dB -19.34 dB 3:55 ?-Rondeau. Allegro
DR13 -3.65 dB -21.14 dB 6:17 ?-Allegro
DR13 -2.84 dB -22.25 dB 5:21 ?-Tempo di Menuetto
DR14 -4.33 dB -23.38 dB 3:19 ?-Allegro
DR13 -7.30 dB -25.36 dB 5:30 ?-Andante
DR15 -4.03 dB -22.84 dB 5:35 ?-Rondo.Allegro grazioso
--------------------------------------------------------------------------------
Number of tracks: 10
Official DR value: DR13
Samplerate: 48000 Hz
Channels: 2
Bits per sample: 24
Bitrate: 1331 kbps
Codec: FLAC
================================================================================

Back, Inner & Disc

[teatrix.ru].t21115.torrent 
Торрент: Зарегистрирован [ 2016-03-20 00:52 ] · 2BFAF84C26D024E926899023775960C6C88CBF3E

Скачать .torrent

Скачать

21 KB

Статус: проверено
Скачан: 0 раз
Размер: 506 MB
terms.php



Быстрый ответ

Имя:

      
Для отправки сообщений необходимо включить JavaScript
Показать сообщения:    

Текущее время: 04-Дек 06:57

Часовой пояс: UTC + 3


Вы можете начинать темы
Вы можете отвечать на сообщения
Вы не можете редактировать свои сообщения
Вы не можете удалять свои сообщения
Вы не можете голосовать в опросах
Вы не можете прикреплять файлы к сообщениям
Вы можете скачивать файлы