(Opera) Claude Debussy - Pelleas et Melisande / Клод Дебюсси - Пеллеас и Мелизанда (Bernard Haitink; Anne Sofie von Otter, Wolfgang Holzmair, Laurent Naouri, Florence Couderc, Hanna Schaer) - 2001, FLAC (tracks), lossless


 

[Цитировать]

Claude Debussy - Pelléas et Mélisande / Клод Дебюсси - Пеллеас и Мелизанда (Bernard Haitink; Anne Sofie von Otter, Wolfgang Holzmair, Laurent Naouri, Florence Couderc, Hanna Schaer)
Жанр: Opera
Страна-производитель диска: Франция
Год издания диска: 2001
Издатель (лейбл): naïve
Дата записи: 2000
Аудиокодек: FLAC
Тип рипа: tracks
Битрейт аудио: lossless
Продолжительность: 161:13
Источник: релизер (Davide)
Наличие сканов в содержимом раздачи: да
Исполнители:
Mélisande - Anne Sofie von Otter,
Pelléas - Wolfgang Holzmair,
Golaud - Laurent Naouri,
Geneviève - Hanna Schaer,
Arkel - Alain Vernhes,
Yniold - Florence Couderc,
Un berger/un médecin - Jérôme Varnier.
Conductor - Bernard Haitink,
Orchestre National de France,
Chœur de Radio France.
Recorded on March 14, 2000 & March 16, 2000 at Théâtre des Champs-Élysées, Paris, France.

Лог создания рипаЛог создания рипа CD 1

Exact Audio Copy V1.0 beta 3 from 29. August 2011
EAC extraction logfile from 27. April 2015, 22:49
Bernard Haitink, ONF / Pelléas et Mélisande CD1
Used drive : hp DVDRW DU8A5SHL Adapter: 0 ID: 0
Read mode : Secure
Utilize accurate stream : Yes
Defeat audio cache : Yes
Make use of C2 pointers : No
Read offset correction : 6
Overread into Lead-In and Lead-Out : No
Fill up missing offset samples with silence : Yes
Delete leading and trailing silent blocks : No
Null samples used in CRC calculations : Yes
Used interface : Native Win32 interface for Win NT & 2000
Used output format : User Defined Encoder
Selected bitrate : 768 kBit/s
Quality : High
Add ID3 tag : No
Command line compressor : C:\Program Files (x86)\Exact Audio Copy\FLAC\FLAC.EXE
Additional command line options : -6 -V -T "ARTIST=%artist%" -T "TITLE=%title%" -T "ALBUM=%albumtitle%" -T "DATE=%year%" -T "TRACKNUMBER=%tracknr%" -T "GENRE=%genre%" -T "COMMENT=%comment%" -T "BAND=%albuminterpret%" -T "ALBUMARTIST=%albuminterpret%" -T "COMPOSER=%composer%" %haslyrics%--tag-from-file=LYRICS="%lyricsfile%"%haslyrics% -T "DISCNUMBER=%cdnumber%" -T "TOTALDISCS=%totalcds%" -T "TOTALTRACKS=%numtracks%" %hascover%--picture="%coverfile%"%hascover% %source% -o %dest%
TOC of the extracted CD
Track | Start | Length | Start sector | End sector
---------------------------------------------------------
1 | 0:00.00 | 13:44.10 | 0 | 61809
2 | 13:44.10 | 10:46.73 | 61810 | 110332
3 | 24:31.08 | 7:02.26 | 110333 | 142008
4 | 31:33.34 | 10:33.25 | 142009 | 189508
5 | 42:06.59 | 13:55.43 | 189509 | 252176
6 | 56:02.27 | 4:57.46 | 252177 | 274497
Track 1
Filename G:\BLOGGER\AA CD RIPPATI\Debussy Pelléas et Mélisande Haitink 2000\CD1\01 Pelléas et Mélisande, L. 88- Scène 1- Une forêt.wav
Peak level 39.5 %
Extraction speed 3.0 X
Track quality 100.0 %
Copy CRC 71F36E63
Accurately ripped (confidence 14) [4A61D30D] (AR v2)
Copy OK
Track 2
Filename G:\BLOGGER\AA CD RIPPATI\Debussy Pelléas et Mélisande Haitink 2000\CD1\02 Pelléas et Mélisande, L. 88- Scène 2- Un appartement dans le château.wav
Peak level 35.8 %
Extraction speed 3.9 X
Track quality 100.0 %
Copy CRC E835928C
Accurately ripped (confidence 14) [466E44F3] (AR v2)
Copy OK
Track 3
Filename G:\BLOGGER\AA CD RIPPATI\Debussy Pelléas et Mélisande Haitink 2000\CD1\03 Pelléas et Mélisande, L. 88- Scène 3- Devant le château.wav
Peak level 53.9 %
Extraction speed 4.2 X
Track quality 100.0 %
Copy CRC FCA2BEA8
Accurately ripped (confidence 14) [1A055962] (AR v2)
Copy OK
Track 4
Filename G:\BLOGGER\AA CD RIPPATI\Debussy Pelléas et Mélisande Haitink 2000\CD1\04 Pelléas et Mélisande, L. 88- Scène 1- Une fontaine dans le parc.wav
Peak level 55.9 %
Extraction speed 4.7 X
Track quality 100.0 %
Copy CRC E68A7ACD
Accurately ripped (confidence 14) [1F978A46] (AR v2)
Copy OK
Track 5
Filename G:\BLOGGER\AA CD RIPPATI\Debussy Pelléas et Mélisande Haitink 2000\CD1\05 Pelléas et Mélisande, L. 88- Scène 2- Un appartement dans le château.wav
Peak level 49.9 %
Extraction speed 5.2 X
Track quality 100.0 %
Copy CRC 619343EC
Accurately ripped (confidence 14) [92ED2419] (AR v2)
Copy OK
Track 6
Filename G:\BLOGGER\AA CD RIPPATI\Debussy Pelléas et Mélisande Haitink 2000\CD1\06 Pelléas et Mélisande, L. 88- Scène 3- Devant une grotte.wav
Peak level 30.1 %
Extraction speed 5.2 X
Track quality 100.0 %
Copy CRC E3755260
Accurately ripped (confidence 14) [488B97BF] (AR v2)
Copy OK
All tracks accurately ripped
No errors occurred
End of status report

Лог создания рипа CD 2

Exact Audio Copy V1.0 beta 3 from 29. August 2011
EAC extraction logfile from 27. April 2015, 23:10
Bernard Haitink, ONF / Pelléas et Mélisande CD2
Used drive : hp DVDRW DU8A5SHL Adapter: 0 ID: 0
Read mode : Secure
Utilize accurate stream : Yes
Defeat audio cache : Yes
Make use of C2 pointers : No
Read offset correction : 6
Overread into Lead-In and Lead-Out : No
Fill up missing offset samples with silence : Yes
Delete leading and trailing silent blocks : No
Null samples used in CRC calculations : Yes
Used interface : Native Win32 interface for Win NT & 2000
Used output format : User Defined Encoder
Selected bitrate : 768 kBit/s
Quality : High
Add ID3 tag : No
Command line compressor : C:\Program Files (x86)\Exact Audio Copy\FLAC\FLAC.EXE
Additional command line options : -6 -V -T "ARTIST=%artist%" -T "TITLE=%title%" -T "ALBUM=%albumtitle%" -T "DATE=%year%" -T "TRACKNUMBER=%tracknr%" -T "GENRE=%genre%" -T "COMMENT=%comment%" -T "BAND=%albuminterpret%" -T "ALBUMARTIST=%albuminterpret%" -T "COMPOSER=%composer%" %haslyrics%--tag-from-file=LYRICS="%lyricsfile%"%haslyrics% -T "DISCNUMBER=%cdnumber%" -T "TOTALDISCS=%totalcds%" -T "TOTALTRACKS=%numtracks%" %hascover%--picture="%coverfile%"%hascover% %source% -o %dest%
TOC of the extracted CD
Track | Start | Length | Start sector | End sector
---------------------------------------------------------
1 | 0:00.00 | 15:10.48 | 0 | 68297
2 | 15:10.48 | 3:54.39 | 68298 | 85886
3 | 19:05.12 | 5:04.08 | 85887 | 108694
4 | 24:09.20 | 10:31.64 | 108695 | 156083
5 | 34:41.09 | 2:59.73 | 156084 | 169581
6 | 37:41.07 | 16:10.43 | 169582 | 242374
7 | 53:51.50 | 3:55.51 | 242375 | 260050
8 | 57:47.26 | 15:39.23 | 260051 | 330498
Track 1
Filename G:\BLOGGER\AA CD RIPPATI\Debussy Pelléas et Mélisande Haitink 2000\CD2\01 Pelléas et Mélisande, L. 88- Scène 1- Une des tours du château.wav
Peak level 48.0 %
Extraction speed 3.1 X
Track quality 99.9 %
Copy CRC F35DF0AB
Accurately ripped (confidence 14) [3D95721B] (AR v2)
Copy OK
Track 2
Filename G:\BLOGGER\AA CD RIPPATI\Debussy Pelléas et Mélisande Haitink 2000\CD2\02 Pelléas et Mélisande, L. 88- Scène 2- Les souterrains du château.wav
Peak level 54.6 %
Extraction speed 3.4 X
Track quality 100.0 %
Copy CRC 57E74F75
Accurately ripped (confidence 14) [1EB38581] (AR v2)
Copy OK
Track 3
Filename G:\BLOGGER\AA CD RIPPATI\Debussy Pelléas et Mélisande Haitink 2000\CD2\03 Pelléas et Mélisande, L. 88- Scène 3- Une terrasse au sortir des souterrains.wav
Peak level 43.2 %
Extraction speed 3.4 X
Track quality 99.9 %
Copy CRC 112DD262
Accurately ripped (confidence 14) [31E6AC31] (AR v2)
Copy OK
Track 4
Filename G:\BLOGGER\AA CD RIPPATI\Debussy Pelléas et Mélisande Haitink 2000\CD2\04 Pelléas et Mélisande, L. 88- Scène 4- Devant le château.wav
Peak level 84.4 %
Extraction speed 4.5 X
Track quality 100.0 %
Copy CRC 85A6AA24
Accurately ripped (confidence 14) [44DFF02C] (AR v2)
Copy OK
Track 5
Filename G:\BLOGGER\AA CD RIPPATI\Debussy Pelléas et Mélisande Haitink 2000\CD2\05 Pelléas et Mélisande, L. 88- Scène 1- Un apparatement dans le château.wav
Peak level 34.4 %
Extraction speed 4.2 X
Track quality 100.0 %
Copy CRC E79F9909
Accurately ripped (confidence 14) [51171FDB] (AR v2)
Copy OK
Track 6
Filename G:\BLOGGER\AA CD RIPPATI\Debussy Pelléas et Mélisande Haitink 2000\CD2\06 Pelléas et Mélisande, L. 88- Scène 2.wav
Peak level 53.4 %
Extraction speed 5.3 X
Track quality 100.0 %
Copy CRC DBD35E6C
Accurately ripped (confidence 14) [FFD0D372] (AR v2)
Copy OK
Track 7
Filename G:\BLOGGER\AA CD RIPPATI\Debussy Pelléas et Mélisande Haitink 2000\CD2\07 Pelléas et Mélisande, L. 88- Scène 3- Une fontaine dans le parc.wav
Peak level 41.9 %
Extraction speed 4.1 X
Track quality 99.9 %
Copy CRC 1CB5B636
Accurately ripped (confidence 14) [21B13FDC] (AR v2)
Copy OK
Track 8
Filename G:\BLOGGER\AA CD RIPPATI\Debussy Pelléas et Mélisande Haitink 2000\CD2\08 Pelléas et Mélisande, L. 88- Scène 4.wav
Peak level 62.9 %
Extraction speed 5.9 X
Track quality 100.0 %
Copy CRC 2EAE4A95
Accurately ripped (confidence 13) [3357E4BC] (AR v2)
Copy OK
All tracks accurately ripped
No errors occurred
End of status report

Лог создания рипа CD 3

Exact Audio Copy V1.0 beta 3 from 29. August 2011
EAC extraction logfile from 27. April 2015, 23:20
Bernard Haitink, ONF / Pelléas et Mélisande CD3
Used drive : hp DVDRW DU8A5SHL Adapter: 0 ID: 0
Read mode : Secure
Utilize accurate stream : Yes
Defeat audio cache : Yes
Make use of C2 pointers : No
Read offset correction : 6
Overread into Lead-In and Lead-Out : No
Fill up missing offset samples with silence : Yes
Delete leading and trailing silent blocks : No
Null samples used in CRC calculations : Yes
Used interface : Native Win32 interface for Win NT & 2000
Used output format : User Defined Encoder
Selected bitrate : 768 kBit/s
Quality : High
Add ID3 tag : No
Command line compressor : C:\Program Files (x86)\Exact Audio Copy\FLAC\FLAC.EXE
Additional command line options : -6 -V -T "ARTIST=%artist%" -T "TITLE=%title%" -T "ALBUM=%albumtitle%" -T "DATE=%year%" -T "TRACKNUMBER=%tracknr%" -T "GENRE=%genre%" -T "COMMENT=%comment%" -T "BAND=%albuminterpret%" -T "ALBUMARTIST=%albuminterpret%" -T "COMPOSER=%composer%" %haslyrics%--tag-from-file=LYRICS="%lyricsfile%"%haslyrics% -T "DISCNUMBER=%cdnumber%" -T "TOTALDISCS=%totalcds%" -T "TOTALTRACKS=%numtracks%" %hascover%--picture="%coverfile%"%hascover% %source% -o %dest%
TOC of the extracted CD
Track | Start | Length | Start sector | End sector
---------------------------------------------------------
1 | 0:00.00 | 26:54.29 | 0 | 121078
Track 1
Filename G:\BLOGGER\AA CD RIPPATI\Debussy Pelléas et Mélisande Haitink 2000\CD3\01 Pelléas et Mélisande, L. 88- ACTE 5 - Scène 1- Une chambre dans le château.wav
Peak level 51.8 %
Extraction speed 3.5 X
Track quality 100.0 %
Copy CRC A0A7B825
Accurately ripped (confidence 14) [5276E49D] (AR v2)
Copy OK
All tracks accurately ripped
No errors occurred
End of status report

Треклист

Disc 1:
1. Scène 1: Une forêt
2. Scène 2: Un appartement dans le château
3. Scène 3: Devant le château
4. Scène 1: Une fontaine dans le parc
5. Scène 2: Un appartement dans le château
6. Scène 3: Devant une grotte
Disc 2:
1. Scène 1: Une des tours du château
2. Scène 2: Les souterrains du château
3. Scène 3: Une terrasse au sortir des souterrains
4. Scène 4: Devant le château
5. Scène 1: Un apparatement dans le château
6. Scène 2
7. Scène 3: Une fontaine dans le parc
8. Scène 4
Disc 3:
1. Scène 1: Une chambre dans le château



Показать сообщения:    

Текущее время: 10-Дек 23:32

Часовой пояс: UTC + 3


Вы не можете начинать темы
Вы не можете отвечать на сообщения
Вы не можете редактировать свои сообщения
Вы не можете удалять свои сообщения
Вы не можете голосовать в опросах
Вы не можете прикреплять файлы к сообщениям
Вы не можете скачивать файлы