(Opera) Claude Debussy - Pelleas et Melisande / Клод Дебюсси - Пеллеас и Мелизанда [Piano Version] (Cecile Besnard, Dominique Ploteau, Philippe Le Chevalier), 1999 - live from Theatre Imperial de Compiegne / 1999, FLAC (tracks+.cue), lossless


 

[Цитировать]

Claude Debussy - Pelléas et Mélisande / Клод Дебюсси - Пеллеас и Мелизанда [Piano Version] (Cecile Besnard, Dominique Ploteau, Philippe Le Chevalier)
Жанр: Opera
Страна-производитель диска: Франция
Год издания диска: 1999
Издатель (лейбл): TFM3
Дата записи: 1999
Аудиокодек: FLAC
Тип рипа: tracks+.cue
Битрейт аудио: lossless
Продолжительность: 154:58
Источник: релизер (Davide)
Наличие сканов в содержимом раздачи: да
Исполнители:
Melisande - Cecile Besnard,
Pelleas - Dominique Ploteau,
Golaud - Philippe Le Chevalier,
Arkel - Bertrand Bontoux,
Genevieve - Elodie Mechain.
Pascal le Corre, piano.
Recorded live on 21, 27, 28 of March, 1999, at Theatre Imperial de Compiegne. Version for piano (1893-1895).

Лог создания рипаЛог создания рипа CD 1

Exact Audio Copy V1.0 beta 3 from 29. August 2011
File di log EAC per l'estrazione del 19. Marzo 2012, 23:14
Pierre Jourdan & Théâtre Français de la Musique / Pelléas et Mélisande
Unità predefinita : TSSTcorpCDDVDW SH-S203N Adapter: 1 ID: 0
Modalità di lettura : Burst
Correzione offset di lettura : 6
Compensa lettura nel Lead-In e nel Lead-Out : No
Riempi sample offset mancanti con silenzio : Sì
Rimuovi blocchi di silenzio ad inizio e fine traccia : No
Usa i sample nulli nel calcolo CRC : Sì
Interfaccia usata : Interfaccia nativa Win32 Per Windows XP/Vista/Win 7
Formato di destinazione scelto : Usa Encoder Definito Da Utente
Bitrate selezionato : 768 kBit/s
Qualità : Alta
Aggiungi tag ID3 : Sì
Compressore a riga di comando : C:\Program Files\FLAC\FLAC frontend.exe
TOC del CD estratto
Traccia | Inizio | Lunghezza | Inizio settore | Fine settore
----------------------------------------------------------------
1 | 0:00.32 | 11:47.58 | 32 | 53114
2 | 11:48.15 | 10:01.62 | 53115 | 98251
3 | 21:50.02 | 6:42.53 | 98252 | 128454
4 | 28:32.55 | 7:14.42 | 128455 | 161046
5 | 35:47.22 | 13:08.13 | 161047 | 220159
6 | 48:55.35 | 4:49.55 | 220160 | 241889
Stato intervallo ed errori
Intervallo selezionato
Nome file D:\AUDIO REC NEW\BLOGGER DOWLOAD\AA CD RIPPATI\Debussy Pelleas et Melisande Jourdan Theatre Français de la Musique\CD 1 Pierre Jourdan & Théâtre Français de la Musique - Pelléas et Mélisande.wav
Livello di picco 99.6 %
Velocità estrazione 24.4 X
Verifica CRC E5D577B4
Copia CRC E5D577B4
Copia corretta
Non sono stati riscontrati errori
Sommario Accuraterip
Traccia 1 Non presente nel database
Traccia 2 Non presente nel database
Traccia 3 Non presente nel database
Traccia 4 Non presente nel database
Traccia 5 Non presente nel database
Traccia 6 Non presente nel database
Nessuna delle tracce è presente nel database AccurateRip
Fine del resoconto di stato

Лог создания рипа CD 2

Exact Audio Copy V1.0 beta 3 from 29. August 2011
File di log EAC per l'estrazione del 19. Marzo 2012, 23:37
Debussy - Maeterlinck / Pelléas et Mélisande CD 2
Unità predefinita : TSSTcorpCDDVDW SH-S203N Adapter: 1 ID: 0
Modalità di lettura : Burst
Correzione offset di lettura : 6
Compensa lettura nel Lead-In e nel Lead-Out : No
Riempi sample offset mancanti con silenzio : Sì
Rimuovi blocchi di silenzio ad inizio e fine traccia : No
Usa i sample nulli nel calcolo CRC : Sì
Interfaccia usata : Interfaccia nativa Win32 Per Windows XP/Vista/Win 7
Formato di destinazione scelto : Usa Encoder Definito Da Utente
Bitrate selezionato : 768 kBit/s
Qualità : Alta
Aggiungi tag ID3 : Sì
Compressore a riga di comando : C:\Program Files\FLAC\FLAC frontend.exe
TOC del CD estratto
Traccia | Inizio | Lunghezza | Inizio settore | Fine settore
----------------------------------------------------------------
1 | 0:00.32 | 14:27.20 | 32 | 65076
2 | 14:27.52 | 3:55.45 | 65077 | 82746
3 | 18:23.22 | 5:08.05 | 82747 | 105851
4 | 23:31.27 | 10:56.48 | 105852 | 155099
5 | 34:28.00 | 2:57.32 | 155100 | 168406
6 | 37:25.32 | 14:57.35 | 168407 | 235716
7 | 52:22.67 | 3:35.28 | 235717 | 251869
8 | 55:58.20 | 15:29.52 | 251870 | 321596
Stato intervallo ed errori
Intervallo selezionato
Nome file D:\AUDIO REC NEW\BLOGGER DOWLOAD\AA CD RIPPATI\Debussy Pelleas et Melisande Jourdan Theatre Français de la Musique\CD 2\CD 2 Debussy - Maeterlinck - Pelléas et Mélisande.wav
Livello di picco 99.6 %
Velocità estrazione 28.7 X
Verifica CRC 8E457D77
Copia CRC 3F147941
Copia corretta
Non sono stati riscontrati errori
Sommario Accuraterip
Traccia 1 Non presente nel database
Traccia 2 Non presente nel database
Traccia 3 Non presente nel database
Traccia 4 Non presente nel database
Traccia 5 Non presente nel database
Traccia 6 Non presente nel database
Traccia 7 Non presente nel database
Traccia 8 Non presente nel database
Nessuna delle tracce è presente nel database AccurateRip
Fine del resoconto di stato

Лог создания рипа CD 3

Exact Audio Copy V1.0 beta 3 from 29. August 2011
File di log EAC per l'estrazione del 19. Marzo 2012, 23:52
Pierre Jourdan & Théâtre Français de la Musique / Pelléas et Mélisande
Unità predefinita : TSSTcorpCDDVDW SH-S203N Adapter: 1 ID: 0
Modalità di lettura : Burst
Correzione offset di lettura : 6
Compensa lettura nel Lead-In e nel Lead-Out : No
Riempi sample offset mancanti con silenzio : Sì
Rimuovi blocchi di silenzio ad inizio e fine traccia : No
Usa i sample nulli nel calcolo CRC : Sì
Interfaccia usata : Interfaccia nativa Win32 Per Windows XP/Vista/Win 7
Formato di destinazione scelto : Usa Encoder Definito Da Utente
Bitrate selezionato : 768 kBit/s
Qualità : Alta
Aggiungi tag ID3 : Sì
Compressore a riga di comando : C:\Program Files\FLAC\FLAC frontend.exe
TOC del CD estratto
Traccia | Inizio | Lunghezza | Inizio settore | Fine settore
----------------------------------------------------------------
1 | 0:00.32 | 29:28.28 | 32 | 132659
Stato intervallo ed errori
Intervallo selezionato
Nome file D:\AUDIO REC NEW\BLOGGER DOWLOAD\AA CD RIPPATI\Debussy Pelleas et Melisande Jourdan Theatre Français de la Musique\CD 3\CD 3 Pierre Jourdan & Théâtre Français de la Musique - Pelléas et Mélisande.wav
Livello di picco 89.4 %
Velocità estrazione 8.2 X
Verifica CRC 87D286E3
Copia CRC 87D286E3
Copia corretta
Non sono stati riscontrati errori
Sommario Accuraterip
Traccia 1 Non presente nel database
Nessuna delle tracce è presente nel database AccurateRip
Fine del resoconto di stato

Содержание индексной карты (.CUE)Содержание индексной карты (.CUE) CD 1

REM GENRE Opera
REM DATE 1999
REM DISCID 430C9906
REM COMMENT "ExactAudioCopy v1.0b3"
TITLE "Pelléas et Mélisande"
PERFORMER "Pierre Jourdan & Théâtre Français de la Musique"
FILE "(01) [Pierre Jourdan & Théâtre Français de la Musique] Acte 1 - Scène 1 - Une forêt.flac" WAVE
TRACK 01 AUDIO
TITLE "Acte 1 - Scène 1 - Une forêt"
PERFORMER "Pierre Jourdan & Théâtre Français de la Musique"
PREGAP 00:00:32
INDEX 01 00:00:00
FILE "(02) [Pierre Jourdan & Théâtre Français de la Musique] Acte 1 - Scène 2 - Un appartement du château.flac" WAVE
TRACK 02 AUDIO
TITLE "Acte 1 - Scène 2 - Un appartement du château"
PERFORMER "Pierre Jourdan & Théâtre Français de la Musique"
PREGAP 00:00:01
INDEX 01 00:00:00
FILE "(03) [Pierre Jourdan & Théâtre Français de la Musique] Acte 1 - Scène 3 - Devant le château.flac" WAVE
TRACK 03 AUDIO
TITLE "Acte 1 - Scène 3 - Devant le château"
PERFORMER "Pierre Jourdan & Théâtre Français de la Musique"
PREGAP 00:00:01
INDEX 01 00:00:00
FILE "(04) [Pierre Jourdan & Théâtre Français de la Musique] Acte 2 - Scène 1 Une fontaine dans le parc.flac" WAVE
TRACK 04 AUDIO
TITLE "Acte 2 - Scène 1 Une fontaine dans le parc"
PERFORMER "Pierre Jourdan & Théâtre Français de la Musique"
PREGAP 00:02:33
INDEX 01 00:00:00
FILE "(05) [Pierre Jourdan & Théâtre Français de la Musique] Acte 2 - Scène 2 - Un appartement du château.flac" WAVE
TRACK 05 AUDIO
TITLE "Acte 2 - Scène 2 - Un appartement du château"
PERFORMER "Pierre Jourdan & Théâtre Français de la Musique"
PREGAP 00:00:01
INDEX 01 00:00:00
FILE "(06) [Pierre Jourdan & Théâtre Français de la Musique] Acte 2 - Scène 3 - Devant une grotte.flac" WAVE
TRACK 06 AUDIO
TITLE "Acte 2 - Scène 3 - Devant une grotte"
PERFORMER "Pierre Jourdan & Théâtre Français de la Musique"
PREGAP 00:00:01
INDEX 01 00:00:00

Содержание индексной карты (.CUE) CD 2

REM GENRE Opera
REM DATE 1999
REM DISCID 5910BF08
REM COMMENT "ExactAudioCopy v1.0b3"
TITLE "Pelléas et Mélisande CD 2"
PERFORMER "Debussy - Maeterlinck"
FILE "(01) [Debussy - Maeterlinck] Acte 3 Scène 1 - Mes longs cheveux descendent.flac" WAVE
TRACK 01 AUDIO
TITLE "Acte 3 Scène 1 - Mes longs cheveux descendent"
PERFORMER "Debussy - Maeterlinck"
PREGAP 00:00:32
INDEX 01 00:00:00
FILE "(02) [Debussy - Maeterlinck] Acte 3 Scène 2 - Prenez garde; par ici, par ici.flac" WAVE
TRACK 02 AUDIO
TITLE "Acte 3 Scène 2 - Prenez garde; par ici, par ici"
PERFORMER "Debussy - Maeterlinck"
INDEX 01 00:00:00
FILE "(03) [Debussy - Maeterlinck] Acte 3 Scène 3 - Ah! je respire enfin.flac" WAVE
TRACK 03 AUDIO
TITLE "Acte 3 Scène 3 - Ah! je respire enfin"
PERFORMER "Debussy - Maeterlinck"
INDEX 01 00:00:00
FILE "(04) [Debussy - Maeterlinck] Acte 3 Scène 4 - Viens, allons nous asseoir ici, Yniold.flac" WAVE
TRACK 04 AUDIO
TITLE "Acte 3 Scène 4 - Viens, allons nous asseoir ici, Yniold"
PERFORMER "Debussy - Maeterlinck"
INDEX 01 00:00:00
FILE "(05) [Debussy - Maeterlinck] Acte 4 Scène 1 - Où vas-tu - Il faut que je te parles ce soir.flac" WAVE
TRACK 05 AUDIO
TITLE "Acte 4 Scène 1 - Où vas-tu ? Il faut que je te parles ce soir"
PERFORMER "Debussy - Maeterlinck"
PREGAP 00:04:31
INDEX 01 00:00:00
FILE "(06) [Debussy - Maeterlinck] Acte 4 Scène 2 - Maintenant que le père de Pélléas.flac" WAVE
TRACK 06 AUDIO
TITLE "Acte 4 Scène 2 - Maintenant que le père de Pélléas"
PERFORMER "Debussy - Maeterlinck"
INDEX 01 00:00:00
FILE "(07) [Debussy - Maeterlinck] Acte 4 Scène 3 - Oh! Cette pierre est lourde.flac" WAVE
TRACK 07 AUDIO
TITLE "Acte 4 Scène 3 - Oh! Cette pierre est lourde"
PERFORMER "Debussy - Maeterlinck"
INDEX 01 00:00:00
FILE "(08) [Debussy - Maeterlinck] Acte 4 Scène 4 - C'est le dernier soir.flac" WAVE
TRACK 08 AUDIO
TITLE "Acte 4 Scène 4 - C'est le dernier soir"
PERFORMER "Debussy - Maeterlinck"
INDEX 01 00:00:00

Содержание индексной карты (.CUE) CD 3

REM GENRE Opera
REM DATE 1999
REM DISCID 0206E801
REM COMMENT "ExactAudioCopy v1.0b3"
TITLE "Pelléas et Mélisande"
PERFORMER "Pierre Jourdan & Théâtre Français de la Musique"
FILE "(01) [Pierre Jourdan & Théâtre Français de la Musique] Acte 5 - Scènes 1-4.flac" WAVE
TRACK 01 AUDIO
TITLE "Acte 5 - Scènes 1-4"
PERFORMER "Pierre Jourdan & Théâtre Français de la Musique"
PREGAP 00:00:32
INDEX 01 00:00:00

Треклист

Disc 1:
Act I:
1. Scene 1. Je ne pourrai plus sortir de cette forêt
2. Scene 2. Voici ce qu'il écrit à son frère Pelléas
3. Il fait sombre dans les jardins
Act II:
4. Scene 1. Vous ne savez pas où je vous ai menée?
5. Scene 2. Ah! Ah! Tout va bien
6. Scene 3. Oui, c'est ici, nous y sommes
Disc 2:
Act III:
1. Scene 1. Mes longs cheveux descendent
2. Scene 2. Prenez garde; par ici, par ici
3. Scene 3. Interlude / Ah! Je respire enfin!
4. Scene 4. Viens, nous allons nous asseoir ici, Yniold
Act IV:
5. Scene 1. Où vas-tu?
6. Scene 2. Maintenant que le père de Pelléas est sauvé
7. Scene 3. Oh! Cette pierre est lourde
8. Scene 4. C'est le dernier soir
Disc 3:
Act V:
1. Ce n'est pas de cette petite blessure qu'elle peut mourir



Показать сообщения:    

Текущее время: 08-Дек 09:03

Часовой пояс: UTC + 3


Вы не можете начинать темы
Вы не можете отвечать на сообщения
Вы не можете редактировать свои сообщения
Вы не можете удалять свои сообщения
Вы не можете голосовать в опросах
Вы не можете прикреплять файлы к сообщениям
Вы не можете скачивать файлы