Владимир Гуляев. Такси на Дубровку (Михаил Ананьев) [2015, Документальный, биография, кинематограф, SATRip]


Статистика раздачи [Обновить пиров]
Размер:  646 MB   |    Зарегистрирован:  8 месяцев 14 дней   |    Скачан:  0 раз

Полного источника не было: Никогда

 
   
 
 
 

[Цитировать]

Владимир Гуляев. Такси на Дубровку
Дата/Год выпуска: 2015
Страна: Россия, ООО "Студия 8"
Жанр: Документальный, биография, кинематограф
Продолжительность: 00:51:57
Перевод: Не требуется
Русские субтитры: нет
Режиссер: Михаил Ананьев
Описание: Знаменитая погоня из кинофильма "Бриллиантовая рука" хорошо известна нескольким поколениям зрителей. С боевого вертолёта МИ-8 за незадачливыми контрабандистами ведёт наблюдение с воздуха лейтенант Володя. Именно эта роль стала визитной карточкой актёра Владимира Гуляева. Но никто из зрителей не догадывался, что именно небо было его стихией с детства. В годы войны штурмовик Владимир Гуляев наводил ужас на противника. За его голову немецкое командование обещало награду. За штурвалом ИЛ-2 он прославился, как один из самых смелых, безрассудных и очень удачливых лётчиков Второй мировой войны. Привыкший побеждать в горящем небе, на мирной земле Гуляев мучительно искал своё место. Но для семейной жизни и актёрской профессии не были написаны уставы.
Участники: Екатерина Гуляева (дочь), Светлана Светличная, Армен Джигарханян, Анатолий Васильев, Геннадий Юхтин, Марлен Хуциев, Сергей Никоненко, Сергей Юртайкин, Николай Сморчков.
качество: SATRip
формат: AVI
Видео: 704x448 (1.57:1), 25 fps, XviD build 50 ~1599 kbps avg, 0.20 bit/pixel
Аудио: 48 kHz, MPEG Layer 3, 2 ch, ~128.00 kbps avg

MediaInfo

Complete name                            : C:\Users\Home\Desktop\временная\Владимир Гуляев.Такси на Дубровку.2015.SATRip.avi
Format : AVI
Format/Info : Audio Video Interleave
File size : 646 MiB
Duration : 51mn 57s
Overall bit rate : 1 737 Kbps
Writing application : VirtualDubMod 1.5.10.3 | www.virtualdub-fr.org || (build 2550/release)
Writing library : VirtualDubMod build 2550/release
Video
ID : 0
Format : MPEG-4 Visual
Format profile : Advanced Simple@L5
Format settings, BVOP : 2
Format settings, QPel : No
Format settings, GMC : No warppoints
Format settings, Matrix : Default (MPEG)
Codec ID : XVID
Codec ID/Hint : XviD
Duration : 51mn 57s
Bit rate : 1 600 Kbps
Width : 704 pixels
Height : 448 pixels
Display aspect ratio : 16:10
Frame rate : 25.000 fps
Color space : YUV
Chroma subsampling : 4:2:0
Bit depth : 8 bits
Scan type : Progressive
Compression mode : Lossy
Bits/(Pixel*Frame) : 0.203
Stream size : 595 MiB (92%)
Writing library : XviD 1.2.1 (UTC 2008-12-04)
Audio
ID : 1
Format : MPEG Audio
Format version : Version 1
Format profile : Layer 3
Codec ID : 55
Codec ID/Hint : MP3
Duration : 51mn 57s
Bit rate mode : Constant
Bit rate : 128 Kbps
Channel count : 2 channels
Sampling rate : 48.0 KHz
Compression mode : Lossy
Stream size : 47.6 MiB (7%)
Alignment : Aligned on interleaves
Interleave, duration : 40 ms (1.00 video frame)
Interleave, preload duration : 504 ms
Writing library : LAME3.99r
Encoding settings : -m s -V 4 -q 2 -lowpass 17 -b 128

Скриншоты

[teatrix.ru].t21122.torrent 
Торрент: Зарегистрирован [ 2016-03-20 00:52 ] · 09024E4044AB834A12C7E01E441F86FB4A4024CE

Скачать .torrent

Скачать

13 KB

Статус: проверено
Скачан: 0 раз
Размер: 646 MB
terms.php



Быстрый ответ

Имя:

      
Для отправки сообщений необходимо включить JavaScript
Показать сообщения:    

Текущее время: 03-Дек 14:38

Часовой пояс: UTC + 3


Вы можете начинать темы
Вы можете отвечать на сообщения
Вы не можете редактировать свои сообщения
Вы не можете удалять свои сообщения
Вы не можете голосовать в опросах
Вы не можете прикреплять файлы к сообщениям
Вы можете скачивать файлы