Жак Оффенбах - Сказки Гофмана / Jacques Offenbach - The Tales of Hoffmann (Les Contes d'Hoffmann) Томас Бичем / Thomas Beecham (Michael Powell & Emeric Pressburger) [1951, Opera-Film, BDRip-AVC 720p] Sub [Русские][English]


 

[Цитировать]

Studio Canal Blu-ray представляет
Жак ОФФЕНБАХ • Jacques OFFENBACH
20 июня (June 20,) 1819 — 5 октября (Octobe 5,) 1880
»«Сказки Г О Ф М А Н А»«
Либретто Жюля Барбье по мотивам новелл Эрнста Теодора Амадея Гофмана (1776 - 1822)


ПОСТАНОВКА Майкла ПАУЭЛЛА и Эмерика ПРЕССБУРГЕРА
Язык/Субтитры: English
Продолжительность: 133 min.
•••
Качество видео: BDRip-AVC [Thanks to mfcorrea]
Формат/Контейнер: MKV
Видео поток: H.264, 986x720, 6500 kbps, 23,976 fps.
Аудио поток: English, AC-3, 640 kbps, 48,0 KHz, 2 ch

Содержание

Moira Shearer as Stella / Olympia
Ludmilla Tchérina as Giulietta
Anne Ayars as Antonia
Pamela Brown as Nicklaus
Léonide Massine as Spalanzani / Schlemil / Franz
Robert Helpmann as Lindorf / Coppelius / Dapertutto / Dr Miracle
Frederick Ashton as Kleinsach / Cochenille
Mogens Wieth as Crespel
Robert Rounseville as Hoffmann
Lionel Harris as Pitichinaccio
Meinhart Maur as Luther
Edmond Audran as Stella's partner in Dragonfly ballet


Dorothy Bond as Olympia
Margherita Grandi as Giulietta
Monica Sinclair as Nicklaus
Joan Alaxander as Antonia's Mother
Grahame Clifford as Spalanzani / Franz
Bruce Dargavel as Coppelius / Dapertutto / Dr Miracle
Murray Dickie as Cochenille / Nathaniel
Owen Brannigan as Hermann / Schlemil / Crespel
Fisher Morgan as Luther
Rene Soames as Pitichinaccio

Медиаинфо


General
Unique ID : 182725556182103908219789834589764853149 (0x8977A97A825D623BB944F43F734C1D9D)
Complete name : The Tales Of Hoffmann (1951) BDRip-AVC.mkv
Format : Matroska
Format version : Version 4 / Version 2
File size : 6.64 GiB
Duration : 2h 13mn
Overall bit rate : 7 144 Kbps
Encoded date : UTC 2015-03-29 12:30:09
Writing application : mkvmerge v7.7.0 ('Six Voices') 32bit built on Feb 28 2015 23:23:00
Writing library : libebml v1.3.1 + libmatroska v1.4.2
Video
ID : 1
Format : AVC
Format/Info : Advanced Video Codec
Format profile : High@L4.1
Format settings, CABAC : Yes
Format settings, ReFrames : 9 frames
Codec ID : V_MPEG4/ISO/AVC
Duration : 2h 13mn
Bit rate : 6 500 Kbps
Width : 986 pixels
Height : 720 pixels
Display aspect ratio : 4:3
Frame rate mode : Constant
Frame rate : 23.976 fps
Color space : YUV
Chroma subsampling : 4:2:0
Bit depth : 8 bits
Scan type : Progressive
Bits/(Pixel*Frame) : 0.382
Stream size : 5.92 GiB (89%)
Writing library : x264 core 142 r2479 dd79a61
Encoding settings : cabac=1 / ref=9 / deblock=1:-2:-2 / analyse=0x3:0x133 / me=umh / subme=9 / psy=1 / psy_rd=1.00:0.00 / mixed_ref=1 / me_range=28 / chroma_me=1 / trellis=2 / 8x8dct=1 / cqm=0 / deadzone=21,11 / fast_pskip=0 / chroma_qp_offset=-2 / threads=18 / lookahead_threads=2 / sliced_threads=0 / nr=0 / decimate=1 / interlaced=0 / bluray_compat=0 / constrained_intra=0 / bframes=6 / b_pyramid=2 / b_adapt=2 / b_bias=0 / direct=3 / weightb=1 / open_gop=0 / weightp=2 / keyint=240 / keyint_min=24 / scenecut=40 / intra_refresh=0 / rc_lookahead=50 / rc=2pass / mbtree=1 / bitrate=6500 / ratetol=1.0 / qcomp=0.60 / qpmin=0 / qpmax=69 / qpstep=4 / cplxblur=20.0 / qblur=0.5 / vbv_maxrate=62500 / vbv_bufsize=78125 / nal_hrd=none / filler=0 / ip_ratio=1.40 / aq=1:1.00
Default : Yes
Forced : No
Color primaries : BT.709
Transfer characteristics : BT.709
Matrix coefficients : BT.709
Audio
ID : 2
Format : AC-3
Format/Info : Audio Coding 3
Mode extension : CM (complete main)
Format settings, Endianness : Big
Codec ID : A_AC3
Duration : 2h 13mn
Bit rate mode : Constant
Bit rate : 640 Kbps
Channel(s) : 2 channels
Channel positions : Front: L R
Sampling rate : 48.0 KHz
Bit depth : 16 bits
Compression mode : Lossy
Delay relative to video : -5ms
Stream size : 609 MiB (9%)
Title : Stereo
Language : English
Default : Yes
Forced : No
Text
ID : 3
Format : VobSub
Muxing mode : zlib
Codec ID : S_VOBSUB
Codec ID/Info : The same subtitle format used on DVDs
Language : English
Default : Yes
Forced : No
Menu
00:00:00.000 : :Chapter 1
00:16:44.378 : :Chapter 2
00:32:26.319 : :Chapter 3
00:52:02.453 : :Chapter 4
00:58:51.069 : :Chapter 5
01:09:06.809 : :Chapter 6
01:25:58.862 : :Chapter 7
01:51:52.623 : :Chapter 8



Показать сообщения:    

Текущее время: 10-Дек 23:32

Часовой пояс: UTC + 3


Вы не можете начинать темы
Вы не можете отвечать на сообщения
Вы не можете редактировать свои сообщения
Вы не можете удалять свои сообщения
Вы не можете голосовать в опросах
Вы не можете прикреплять файлы к сообщениям
Вы не можете скачивать файлы