(Classical) [LP] [24/48] H. Berlioz - Symphonie fantastique Op. 14. The New York Philarmonic Orchestra - Conductor Dimitri Mitropoulos - 1980, FLAC (tracks+.cue)


Статистика раздачи [Обновить пиров]
Размер:  507 MB   |    Зарегистрирован:  8 месяцев 17 дней   |    Скачан:  0 раз

Полного источника не было: Никогда

 
   
 
 
 

[Цитировать]

H. Berlioz - Symphonie fantastique Op. 14. The New York Philarmonic Orchestra - Conductor Dimitri Mitropoulos
Жанр: Classical
Носитель: LP
Год выпуска: 1980
Лейбл: Melodya (MOZG)
Страна-производитель: USSR
Аудио кодек: FLAC
Тип рипа: tracks+.cue
Формат записи: 32/192
Формат раздачи: 24/48
Продолжительность: 50 min
Треклист:
01. Reverie. Passions
02. Un Bal
03. Scene aux champs
04. Marche au supplice
05. Songe d'une Nuit de Sabbat
Источник оцифровки: автором раздачи
Код класса состояния винила: NM
Устройство воспроизведения: Электроника ЭП 017С
Головка звукоснимателя: Audio-Technica AT95
Предварительный усилитель: Бриг-001
АЦП: VIA HD audio device
Программа-оцифровщик: Izotope RX 4 Advanced
Обработка: Izotope RX 4 Advanced

Спектр+АЧХ+Уровень записи

DR=12

foobar2000 1.1.10 / Dynamic Range Meter 1.1.1
log date: 2015-05-07 14:02:51
--------------------------------------------------------------------------------
Analyzed: Dimitri Mitropoulos / Symphonie fantastique Op. 14
--------------------------------------------------------------------------------
DR Peak RMS Duration Track
--------------------------------------------------------------------------------
DR12 -2.12 dB -20.83 dB 13:33 ?-Reverie. Passions
DR11 -2.67 dB -18.66 dB 6:26 ?-Un Bal
DR14 -3.12 dB -24.19 dB 14:43 ?-Scene aux champs
DR10 -3.06 dB -18.18 dB 5:07 ?-Marche au supplice
DR11 -3.33 dB -20.27 dB 10:11 ?-Songe d'une Nuit de Sabbat
--------------------------------------------------------------------------------
Number of tracks: 5
Official DR value: DR12
Samplerate: 48000 Hz
Channels: 2
Bits per sample: 24
Bitrate: 1389 kbps
Codec: FLAC
================================================================================

Back, Inner & Disc


[teatrix.ru].t21125.torrent 
Торрент: Зарегистрирован [ 2016-03-20 00:52 ] · 5FD9F4CE21133C476F81BB8084EF67ECE34B9D5E

Скачать .torrent

Скачать

21 KB

Статус: проверено
Скачан: 0 раз
Размер: 507 MB
terms.php



Быстрый ответ

Имя:

      
Для отправки сообщений необходимо включить JavaScript
Показать сообщения:    

Текущее время: 06-Дек 13:15

Часовой пояс: UTC + 3


Вы можете начинать темы
Вы можете отвечать на сообщения
Вы не можете редактировать свои сообщения
Вы не можете удалять свои сообщения
Вы не можете голосовать в опросах
Вы не можете прикреплять файлы к сообщениям
Вы можете скачивать файлы