(Classical) [LP] [24/48] Maxim Mikhailov - Bass/Максим Михайлов - бас - Из Сокровищницы Мирового Исполнительского Искусства - 1980, FLAC (tracks+.cue)


Статистика раздачи [Обновить пиров]
Размер:  229 MB   |    Зарегистрирован:  10 месяцев 3 дня   |    Скачан:  0 раз

Полного источника не было: Никогда

 
   
 
 
 

[Цитировать]

Maxim Mikhailov - Bass/Максим Михайлов - бас - Из Сокровищницы Мирового Исполнительского Искусства
Жанр: Classical
Носитель: LP
Год выпуска: 1980
Лейбл: Melodya (VSG)
Страна-производитель: USSR
Аудио кодек: FLAC
Тип рипа: tracks+.cue
Формат записи: 32/192
Формат раздачи: 24/48
Продолжительность: 44.04 min
Треклист:
Side One:
M. Glinka
01. Susanin's Aria
A. Borodin
02. Konchak's Aria
N. Rimsky-Korsakov
03. Song of the Varangian Guest
Bolshoi Theatre Orchestra
Conductors:
A. Melik-Pashayev (1,2), N. Golovanov (3)
Side Two:
Russian Folk Songs:
04. Through the Wild Mysterious Taiga
05. Sun Rises, Sun Sets
06. Amidst the Rolling Valleys
07. Sacred Baikal
Russian Folk Orchestra
Conductor D. Osipov
Источник оцифровки: автором раздачи
Код класса состояния винила: NM
Устройство воспроизведения: Электроника ЭП 017С
Головка звукоснимателя: Audio-Technica AT95
Предварительный усилитель: Бриг-001
АЦП: VIA HD audio device
Программа-оцифровщик: Izotope RX 4 Advanced
Обработка: Izotope RX 4 Advanced

Спектр+АЧХ+Уровень записи

DR=12

foobar2000 1.1.10 / Dynamic Range Meter 1.1.1
log date: 2015-05-08 12:19:03
--------------------------------------------------------------------------------
Analyzed: Maxim Mikhailov / The World's Leading Interpreters Of Music
--------------------------------------------------------------------------------
DR Peak RMS Duration Track
--------------------------------------------------------------------------------
DR12 -4.64 dB -21.97 dB 12:53 ?-Susanin's Aria
DR10 -6.71 dB -20.10 dB 6:49 ?-Konchak's Aria
DR9 -7.13 dB -19.32 dB 3:19 ?-Song of the Varangian Guest
DR13 -7.38 dB -25.08 dB 4:14 ?-Through the Wild Mysterious Taiga
DR12 -7.10 dB -24.07 dB 5:06 ?-Sun Rises, Sun Sets
DR13 -4.50 dB -23.46 dB 5:58 ?-Amidst the Rolling Valleys
DR14 -4.67 dB -23.17 dB 5:46 ?-Sacred Baikal
--------------------------------------------------------------------------------
Number of tracks: 7
Official DR value: DR12
Samplerate: 48000 Hz
Channels: 1
Bits per sample: 24
Bitrate: 702 kbps
Codec: FLAC
================================================================================

Back, Inner & Disc

[teatrix.ru].t21128.torrent 
Торрент: Зарегистрирован [ 2016-03-20 00:52 ] · 03227589BD17959F6E525D97B8E6BFAB0BEFFFB4

Скачать .torrent

Скачать

19 KB

Статус: проверено
Скачан: 0 раз
Размер: 229 MB
terms.php



Быстрый ответ

Имя:

      
Для отправки сообщений необходимо включить JavaScript
Показать сообщения:    

Текущее время: 24-Янв 00:02

Часовой пояс: UTC + 3


Вы можете начинать темы
Вы можете отвечать на сообщения
Вы не можете редактировать свои сообщения
Вы не можете удалять свои сообщения
Вы не можете голосовать в опросах
Вы не можете прикреплять файлы к сообщениям
Вы можете скачивать файлы