(Classical) Ludwig van Beethoven - String Quartets Opp. 95, 18/1, 59/2 - Quatuor Voce - 2013, FLAC (image+.cue) lossless


 

[Цитировать]

Ludwig van Beethoven - String Quartets Opp. 95, 18/1, 59/2 - Quatuor Voce
Жанр: Classical
Страна-производитель диска: France
Год издания диска: 2013
Издатель (лейбл): Naive
Номер по каталогу: V5356
Дата записи: 2012
Аудиокодек: FLAC
Тип рипа: image+.cue
Битрейт аудио: lossless
Продолжительность: 79:02
Источник: собственный рип
Наличие сканов в содержимом раздачи: да
Треклист:
Ludwig van Beethoven (1770-1827)
[1]-[4] String Quartet No.11 in F minor, Op.95 'Serioso'
[5]-[8] String Quartet No.1 in F major, Op.18/1
[9]-[12] String Quartet No.8 in E minor, Op.59/2
Исполнители:
Quatuor Voce
Sarah Dayan violin
Cécile Roubin violin
Guillaume Becker viola
Florian Frère cello

Лог создания рипа

Exact Audio Copy V1.0 beta 3 from 29. August 2011
EAC extraction logfile from 23. December 2014, 21:23
Quatuor Voce / Beethoven - String Quartets 1, 8 & 11
Used drive : HL-DT-STDVDRAM GU70N Adapter: 0 ID: 0
Read mode : Secure
Utilize accurate stream : Yes
Defeat audio cache : Yes
Make use of C2 pointers : No
Read offset correction : 48
Overread into Lead-In and Lead-Out : No
Fill up missing offset samples with silence : Yes
Delete leading and trailing silent blocks : No
Null samples used in CRC calculations : Yes
Used interface : Native Win32 interface for Win NT & 2000
Used output format : User Defined Encoder
Selected bitrate : 128 kBit/s
Quality : High
Add ID3 tag : No
Command line compressor : C:\Program Files (x86)\Exact Audio Copy\Flac\flac.exe
Additional command line options : -V -8 -T "Date=%year%" -T "Genre=%genre%" %source%
TOC of the extracted CD
Track | Start | Length | Start sector | End sector
---------------------------------------------------------
1 | 0:00.00 | 4:04.55 | 0 | 18354
2 | 4:04.55 | 6:35.61 | 18355 | 48040
3 | 10:40.41 | 4:19.41 | 48041 | 67506
4 | 15:00.07 | 4:48.41 | 67507 | 89147
5 | 19:48.48 | 6:34.73 | 89148 | 118770
6 | 26:23.46 | 9:24.42 | 118771 | 161112
7 | 35:48.13 | 3:11.49 | 161113 | 175486
8 | 38:59.62 | 6:27.05 | 175487 | 204516
9 | 45:26.67 | 9:31.04 | 204517 | 247345
10 | 54:57.71 | 12:19.26 | 247346 | 302796
11 | 67:17.22 | 6:28.63 | 302797 | 331959
12 | 73:46.10 | 5:15.52 | 331960 | 355636
Range status and errors
Selected range
Filename C:\temp\V5356 - Beethoven - String Quartets 1, 8 & 11\Beethoven - String Quartets 1, 8 & 11.wav
Peak level 93.0 %
Extraction speed 2.3 X
Range quality 100.0 %
Test CRC 35833B43
Copy CRC 35833B43
Copy OK
No errors occurred
AccurateRip summary
Track 1 not present in database
Track 2 not present in database
Track 3 not present in database
Track 4 not present in database
Track 5 not present in database
Track 6 not present in database
Track 7 not present in database
Track 8 not present in database
Track 9 not present in database
Track 10 not present in database
Track 11 not present in database
Track 12 not present in database
None of the tracks are present in the AccurateRip database
End of status report
==== Log checksum 4D949994979A09DCB66AAAEA8ACD8C614183F4C5904ACDB3B793772FBD729C11 ====



Показать сообщения:    

Текущее время: 09-Дек 18:35

Часовой пояс: UTC + 3


Вы не можете начинать темы
Вы не можете отвечать на сообщения
Вы не можете редактировать свои сообщения
Вы не можете удалять свои сообщения
Вы не можете голосовать в опросах
Вы не можете прикреплять файлы к сообщениям
Вы не можете скачивать файлы