(Classical / Orchestral) Gustav Mahler - Totenfeier (Todtenfeier) • Suite aus Orchestenwerken von Johann Sebastian Bach (Radio-Symphonie-Orchester Berlin, Jesus Lopez-Cobos, Peter Ruzicka, 1983/1975) - 1985, FLAC (image+.cue) lossless


 

[Цитировать]

Gustav Mahler | Густав Малер
(1860–1911)



Totenfeier | Suite aus Orchestenwerken von J. S. Bach*
Тризна | Сюита из оркестровых произведений Й. С. Баха*


Radio-Symphonie-Orchester Berlin
Jesús López-CobosPeter Ruzicka*


Жанр: Classical / Orchestral
Даты записи: 1983, 1975
Формат записи: ADD, Stereo
Год издания диска: 1985
Издатель (лейбл): KOCH
Номер по каталогу: 3-1204-2
Аудиокодек: FLAC
Тип рипа: image+.cue
Битрейт аудио: lossless
Продолжительность: 48:44
Наличие сканов в содержимом раздачи: да
Источник: блог OdeonMusic


Tracklist / Треклист
«Totenfeier» (Sinfonische Dichtung) - 24:34
Jesús López-Cobos, conductor
Recorded: December 1983

Suite aus Orchestenwerken von J. S. Bach - 24:10
I. Ouverture (BWV 1067) - 9:34
  • II. Rondeau. — Badinerie. — Rondeau (BWV 1067) - 3:46
  • III. Air (BWV 1068) - 6:42
  • IV. Gavotte I, II (BWV 1068) - 4:09
    Peter Ruzicka, conductor
    Recorded: March 1975


    -

    EAC log / Отчёт EAC

    Exact Audio Copy V1.0 beta 3 from 29. August 2011
    EAC extraction logfile from 1. November 2012, 20:32
    Jesus Lopez-Cobos / Mahler – Todtenfeier, Suite from works by Bach – V.A.
    Used drive : TSSTcorpCDDVDW SH-222BB Adapter: 2 ID: 1
    Read mode : Secure
    Utilize accurate stream : Yes
    Defeat audio cache : Yes
    Make use of C2 pointers : No
    Read offset correction : 6
    Overread into Lead-In and Lead-Out : No
    Fill up missing offset samples with silence : Yes
    Delete leading and trailing silent blocks : No
    Null samples used in CRC calculations : Yes
    Used interface : Native Win32 interface for Win NT & 2000
    Used output format : User Defined Encoder
    Selected bitrate : 1024 kBit/s
    Quality : High
    Add ID3 tag : No
    Command line compressor : C:\Program Files\Exact Audio Copy\Flac\flac.exe
    Additional command line options : -8 -V -T "TITLE=%title%" -T "ARTIST=%artist%" -T "ALBUMARTIST=%albumartist%" -T "ALBUM=%albumtitle%" -T "DATE=%year%" -T "TRACKNUMBER=%tracknr%" -T "TRACKTOTAL=%numtracks%" -T "GENRE=%genre%" -T "COMMENT=%comment%" -T "PERFORMER=%albuminterpret%" -T "COMPOSER=%composer%" %source% -o %dest%
    TOC of the extracted CD
    Track | Start | Length | Start sector | End sector
    ---------------------------------------------------------
    1 | 0:00.33 | 24:34.00 | 33 | 110582
    2 | 24:34.33 | 9:33.50 | 110583 | 153607
    3 | 34:08.08 | 3:45.62 | 153608 | 170544
    4 | 37:53.70 | 6:41.63 | 170545 | 200682
    5 | 44:35.58 | 4:08.50 | 200683 | 219332
    Range status and errors
    Selected range
    Filename G:\Ripped general\[1314] Mahler – Todtenfeier, Suite from works by Bach – V.A\Mahler – Todtenfeier, Suite from works by Bach – V.A..wav
    Peak level 98.0 %
    Extraction speed 2.3 X
    Range quality 100.0 %
    Test CRC 386F38B0
    Copy CRC 386F38B0
    Copy OK
    No errors occurred
    AccurateRip summary
    Track 1 accurately ripped (confidence 3) [437ED488] (AR v1)
    Track 2 accurately ripped (confidence 2) [0A7646DF] (AR v2)
    Track 3 accurately ripped (confidence 2) [8D93D6E4] (AR v2)
    Track 4 accurately ripped (confidence 2) [98F3DA8A] (AR v2)
    Track 5 accurately ripped (confidence 2) [098478AC] (AR v2)
    All tracks accurately ripped
    End of status report

    auCDtect Task Manager log / Отчёт auCDtect Task Manager

    -----------------------
    DON'T MODIFY THIS FILE
    -----------------------
    PERFORMER: auCDtect Task Manager, ver. 1.5.1RC3 build 1.5.1.4
    Copyright (c) 2008-2010 y-soft. All rights reserved
    ANALYZER: auCDtect: CD records authenticity detector, version 0.8.2
    Copyright (c) 2004 Oleg Berngardt. All rights reserved.
    Copyright (c) 2004 Alexander Djourik. All rights reserved.
    FILE: Mahler. Totenfeier, Suite aus Orchestenwerken von J. S. Bach (Lopez-Cobos, Ruzicka).flac
    Size: 239286566 Hash: F46EB80AF42D883DC504235D50E2E84F Accuracy: -m0
    Conclusion: CDDA 100%
    Signature: 11E86D7F67CD0BA745B05158B6447339B735F861

    CUETools log / Отчёт CUETools

    [CUETools log; Date: 08.05.2015 21:38:46; Version: 2.1.4]
    Pregap length 00:00:33.
    [AccurateRip ID: 000d0b01-00383520-410b6c05] found.
    Track [ CRC | V2 ] Status
    01 [437ed488|d507c362] (3+3/8) Accurately ripped
    02 [9715d531|0a7646df] (3+4/9) Accurately ripped
    03 [1635abb4|8d93d6e4] (3+4/7) Accurately ripped
    04 [334a6046|98f3da8a] (3+4/7) Accurately ripped
    05 [9c2f5c5d|098478ac] (3+3/8) Accurately ripped
    Offsetted by -271:
    01 [2eb0f445] (2/8) Accurately ripped
    02 [386022a6] (2/9) Accurately ripped
    03 [4ad2187b] (0/7) No match (V2 was not tested)
    04 [3af21957] (0/7) No match (V2 was not tested)
    05 [5beff1c7] (2/8) Accurately ripped
    Track Peak [ CRC32 ] [W/O NULL] [ LOG ]
    -- 98,0 [386F38B0] [71670D54] CRC32
    01 98,0 [11CE15D1] [8C7D37E7]
    02 93,3 [474AEDA7] [A99B4FB2]
    03 95,3 [A3C19B3B] [A3A80A09]
    04 34,2 [0327FD99] [95DC1DE4]
    05 91,7 [E3C8C3F4] [51AEE70E]

    CUE sheet

    REM GENRE Classical
    REM DISCID 410B6C05
    REM COMMENT ExactAudioCopy v1.0b3
    PERFORMER "Jesús López-Cobos • Peter Ruzicka"
    TITLE "Gustav Mahler: Totenfeier • Suite aus Orchestenwerken von J. S. Bach"
    FILE "Mahler. Totenfeier, Suite aus Orchestenwerken von J. S. Bach (Lopez-Cobos, Ruzicka).flac" WAVE
    TRACK 01 AUDIO
    TITLE "«Totenfeier» (Sinfonische Dichtung)"
    PERFORMER "Radio-Symphonie-Orchester Berlin. Jesús López-Cobos, conductor"
    REM DATE 1983
    INDEX 00 00:00:00
    INDEX 01 00:00:33
    TRACK 02 AUDIO
    TITLE "Suite aus Orchestenwerken von J. S. Bach: I. Ouverture (BWV 1067)"
    PERFORMER "Radio-Symphonie-Orchester Berlin. Peter Ruzicka, conductor"
    REM DATE 1975
    INDEX 00 24:27:08
    INDEX 01 24:34:33
    TRACK 03 AUDIO
    TITLE "Suite aus Orchestenwerken von J. S. Bach: II. Rondeau. — Badinerie. — Rondeau (BWV 1067)"
    PERFORMER "Radio-Symphonie-Orchester Berlin. Peter Ruzicka, conductor"
    REM DATE 1975
    INDEX 00 34:04:33
    INDEX 01 34:08:08
    TRACK 04 AUDIO
    TITLE "Suite aus Orchestenwerken von J. S. Bach: III. Air (BWV 1068)"
    PERFORMER "Radio-Symphonie-Orchester Berlin. Peter Ruzicka, conductor"
    REM DATE 1975
    INDEX 00 37:49:33
    INDEX 01 37:53:70
    TRACK 05 AUDIO
    TITLE "Suite aus Orchestenwerken von J. S. Bach: IV. Gavotte I, II (BWV 1068)"
    PERFORMER "Radio-Symphonie-Orchester Berlin. Peter Ruzicka, conductor"
    REM DATE 1975
    INDEX 00 44:30:70
    INDEX 01 44:35:58
    -
    Gustav Mahler — каталог раздач на rutracker.orgВсе мои раздачи / All my releases



  • Показать сообщения:    

    Текущее время: 18-Янв 02:34

    Часовой пояс: UTC + 3


    Вы не можете начинать темы
    Вы не можете отвечать на сообщения
    Вы не можете редактировать свои сообщения
    Вы не можете удалять свои сообщения
    Вы не можете голосовать в опросах
    Вы не можете прикреплять файлы к сообщениям
    Вы не можете скачивать файлы