(Classical) [LP] [24/48] L. Beethoven / Л. Бетховен - Sonatas for Cello and Piano - Pierre Fournier - Cello; Artur Schnabel - Piano (2LP) - 1980, FLAC (tracks+.cue)


Статистика раздачи [Обновить пиров]
Размер:  492 MB   |    Зарегистрирован:  8 месяцев 20 дней   |    Скачан:  0 раз

Полного источника не было: Никогда

 
   
 
 
 

[Цитировать]

L. Beethoven / Л. Бетховен - Sonatas for Cello and Piano - Pierre Fournier - Cello; Artur Schnabel - Piano (2LP)
Жанр: Classical
Носитель: LP
Год выпуска: 1980
Лейбл: Melodya (VSG)
Страна-производитель: USSR
Аудио кодек: FLAC
Тип рипа: tracks+.cue
Формат записи: 32/192
Формат раздачи: 24/48
Продолжительность: 1.41.53 min
Треклист:
Archive recordings, made in Britain
Side One:
SONATA No. 1 in F Major, Op. 5 No. 1
01. Adagio sostenuto. Allegro
02. Rondo. Allegro vivace
(Recorded June 23, 1948)
SONATA No. 4 in C Major, Op. 102, No. 1
03. Andante. Allegro vivace
Side Two:
04. Adagio. Tempo d'Andante. Allegro vivace
(Recorded June 12, 1947)
SONATA No. 2 in G Minor, Op. 5 No. 2
05. Adagio sostenuto ed espressivo. Allegro motto piu tosto presto
06. Rondo. Allegro
(Recorded June 24, 1948)
Side Three:
SONATA No. 3 in A Major, Op. 69
07. Allegro ma non tanto
08. Scherzo. Allegro motto
09. Adagio cantabile. Allegro vivace
(Recorded June 6 and 7, 1947)
Side Four:
SONATA No. 5 In D Major, Op. 102, No. 2
10. Allegro con brio
11. Adagio con molto sentimento d'affetto
12. Allegro. Allegro fugato
(Recorded June 21 and 22, 1948)
Источник оцифровки: автором раздачи
Код класса состояния винила: NM
Устройство воспроизведения: Электроника ЭП 017С
Головка звукоснимателя: Audio-Technica AT95
Предварительный усилитель: Бриг-001
АЦП: VIA HD audio device
Программа-оцифровщик: Izotope RX 4 Advanced
Обработка: Izotope RX 4 Advanced

Спектр+АЧХ+Уровень записи

DR=12

foobar2000 1.1.10 / Dynamic Range Meter 1.1.1
log date: 2015-05-09 10:25:54
--------------------------------------------------------------------------------
Analyzed: Pierre Fournier / Sonatas for Cello and Piano
--------------------------------------------------------------------------------
DR Peak RMS Duration Track
--------------------------------------------------------------------------------
DR11 -5.91 dB -21.11 dB 13:56 ?-Adagio sostenuto. Allegro
DR12 -8.02 dB -23.44 dB 6:23 ?-Rondo. Allegro vivace
DR12 -7.65 dB -22.47 dB 8:15 ?-Andante. Allegro vivace
DR12 -5.83 dB -23.15 dB 6:41 ?-Adagio. Tempo d'Andante. Allegro vivace
DR13 -7.62 dB -24.77 dB 13:25 ?-Adagio sostenuto ed espressivo. Allegro motto piu tosto presto
DR10 -8.32 dB -21.13 dB 8:08 ?-Rondo. Allegro
DR12 -7.60 dB -23.31 dB 11:32 ?-Allegro ma non tanto
DR11 -7.67 dB -24.36 dB 4:46 ?-Scherzo. Allegro motto
DR11 -8.59 dB -24.93 dB 8:20 ?-Adagio cantabile. Allegro vivace
DR13 -5.86 dB -22.53 dB 6:06 ?-Allegro con brio
DR14 -6.89 dB -26.68 dB 10:08 ?-Adagio con molto sentimento d'affetto
DR12 -5.98 dB -21.91 dB 4:13 ?-Allegro. Allegro fugato
--------------------------------------------------------------------------------
Number of tracks: 12
Official DR value: DR12
Samplerate: 48000 Hz
Channels: 1
Bits per sample: 24
Bitrate: 669 kbps
Codec: FLAC
================================================================================

Back, Inner & Disc

[teatrix.ru].t21137.torrent 
Торрент: Зарегистрирован [ 2016-03-20 00:52 ] · 4B2755ED2EEB0D094287E33D713C41B1F77CF213

Скачать .torrent

Скачать

21 KB

Статус: проверено
Скачан: 0 раз
Размер: 492 MB
terms.php



Быстрый ответ

Имя:

      
Для отправки сообщений необходимо включить JavaScript
Показать сообщения:    

Текущее время: 09-Дек 22:28

Часовой пояс: UTC + 3


Вы можете начинать темы
Вы можете отвечать на сообщения
Вы не можете редактировать свои сообщения
Вы не можете удалять свои сообщения
Вы не можете голосовать в опросах
Вы не можете прикреплять файлы к сообщениям
Вы можете скачивать файлы