Жан-Поль Бельмондо о фильме Профессионал / Interview Jean-Paul Belmondo sur son dernier film Le professionnel [18.10.1981, документальный, кинематограф, IPTVRip-AVC] VO (Andi999) + Original (Fra) + Sub (Rus)


Статистика раздачи [Обновить пиров]
Размер:  64 MB   |    Зарегистрирован:  8 месяцев 15 дней   |    Скачан:  0 раз

Полного источника не было: Никогда

 
   
 
 
 

[Цитировать]

Жан-Поль Бельмондо о фильме "Профессионал"
Interview Jean-Paul Belmondo sur son dernier film Le professionnel- Дата/Год выпуска: 18.10.1981
Страна: Франция
Жанр: документальный, кинематограф
Продолжительность: 00:04:44
Перевод: Одноголосый закадровый (Andi999)
Русские субтитры: естьФормат субтитров: softsub (SRT)
Доп. информация о субтитрах: перевод Алексей Королев, инициатор Алексей Проскуряков aka Aleks Punk
Оригинальная аудиодорожка: французский
Режиссер: не известен
Телеканал: ina
Описание: Журналист Мишель Дрюкер / Michel Drucker берет интервью у актера Жана-Поля Бельмондо для канала TF1. Разговор идет о фильме "Профессионал" реж. Жоржа Лотнера.
Доп. информация: За предоставленный материал благодарность Aleks Punk.

качество: IPTVRip-AVC
формат: MKV
Видео: AVC (H.264), 640x480 (4:3), 25 fps, ~1500 kbps avg, 0.195 bit/pixel
Аудио 1: AC3, 2 ch, 48 kHz, ~192.00 kbps avg - русский
Аудио 2: AC3, 2 ch, 48 kHz, ~192.00 kbps avg - французский

Пример субтитров

1
00:00:00,000 --> 00:00:04,140
Спасибо, спасибо.
Жан-Поль Бельмондо встретился
с Мишелем Дрюкером на TF1
2
00:00:04,300 --> 00:00:08,180
Вы знаете, что его новый фильм,
"Профессионал" выходит в прокат
в ближайшую среду.
3
00:00:08,340 --> 00:00:13,580
Это политический или полицейский фильм,
где герой, которого играет Бельмондо,-
агент секретной службы.
4
00:00:13,820 --> 00:00:19,060
Но нас сегодня интересует тема
"Бельмондо - профессионал кино
до кончиков ногтей"
5
00:00:19,300 --> 00:00:21,220
Он отвечает на вопросы Мишеля Дрюкера.
6
00:00:21,380 --> 00:00:23,140
Мы рады видеть вас у нас в студии.
7
00:00:23,260 --> 00:00:26,700
Это событие, т.к. вы практически
не появляетесь на телевидении.
8
00:00:26,820 --> 00:00:29,860
Я задам вопрос, который возникает
у многих ведущих и у многих телезрителей:
9
00:00:30,020 --> 00:00:32,380
почему вы так редко
появляетесь на телевидении?
10
00:00:32,740 --> 00:00:39,220
- Во-первых, я занимаюсь кино, и люди
должны видеть меня в кино, а не на телевидении.
11
00:00:39,620 --> 00:00:45,740
Я прихожу на телевидение, и я думаю, что
это хорошо, когда телевидение помогает кино,
т.е. рекламирует кино.
12
00:00:45,860 --> 00:00:51,780
Я бы ответил вам, что
с тех пор, как вы покинули какую-то
передачу, их стало не много на телевидении.
13
00:00:51,900 --> 00:00:54,220
Поэтому я не прихожу.
- Это восстановится.
- Я надеюсь.
14
00:00:55,540 --> 00:01:00,940
Жан-Поль Бельмондо, этот фильм
совершенно не похож на предыдущие.
15
00:01:01,100 --> 00:01:04,540
того же Лотнера - это не "Игра в четыре руки",
это даже не "Кто есть кто", это фильм...
16
00:01:04,660 --> 00:01:11,620
приключенческий, конечно,
но это фильм, который рассказывает историю
почти что с политически-полицейским подтекстом.
17
00:01:11,780 --> 00:01:17,100
- Это так?
- Да, вы знаете, становится все труднее
и труднее найти хорошие сценарии и диалоги.
18
00:01:17,220 --> 00:01:20,340
И мне повезло, что нашлась эта книга...
19
00:01:20,500 --> 00:01:22,940
Это очень хорошая книга,
с очень сильным текстом.
20
00:01:23,100 --> 00:01:30,140
Одьяр с Лотнером проделали
солидную работу и сняли очень сильный фильм,
с очень хорошими диалогами, к тому же

MediaInfo

Общее
Уникальный идентификатор : 212995897804019858561356135665962782856 (0xA03D848C002B3A91A15830321EF31088)
Полное имя : H:\My Torrents\[apreder]Belmondo_sur_son_dernier_film_Le_professionnel(18.10.1981)IPTVRip.mkv
Формат : Matroska
Версия формата : Version 2
Размер файла : 63,9 Мбайт
Продолжительность : 4 м. 44 с.
Общий поток : 1886 Кбит/сек
Дата кодирования : UTC 2015-05-21 17:02:14
Программа кодирования : mkvmerge v7.9.0 ('Birds') 64bit
Библиотека кодирования : libebml v1.3.1 + libmatroska v1.4.2
Видео
Идентификатор : 1
Формат : AVC
Формат/Информация : Advanced Video Codec
Профиль формата : High@L4.1
Параметр CABAC формата : Да
Параметр ReFrames формата : 16 кадров
Идентификатор кодека : V_MPEG4/ISO/AVC
Продолжительность : 4 м. 44 с.
Битрейт : 1500 Кбит/сек
Ширина : 640 пикселей
Высота : 480 пикселей
Соотношение сторон : 4:3
Режим частоты кадров : Постоянный
Частота кадров : 25,000 кадров/сек
Цветовое пространство : YUV
Субдискретизация насыщенности : 4:2:0
Битовая глубина : 8 бит
Тип развёртки : Прогрессивная
Бит/(Пиксели*Кадры) : 0.195
Размер потока : 49,6 Мбайт (78%)
Библиотека кодирования : x264 core 146 r2538 121396c
Настройки программы : cabac=1 / ref=16 / deblock=1:-1:-1 / analyse=0x3:0x133 / me=umh / subme=10 / psy=1 / psy_rd=1.00:0.15 / mixed_ref=1 / me_range=24 / chroma_me=1 / trellis=2 / 8x8dct=1 / cqm=0 / deadzone=21,11 / fast_pskip=1 / chroma_qp_offset=-3 / threads=6 / lookahead_threads=1 / sliced_threads=0 / nr=0 / decimate=1 / interlaced=0 / bluray_compat=0 / constrained_intra=0 / bframes=8 / b_pyramid=2 / b_adapt=2 / b_bias=0 / direct=3 / weightb=1 / open_gop=0 / weightp=2 / keyint=250 / keyint_min=25 / scenecut=40 / intra_refresh=0 / rc_lookahead=60 / rc=2pass / mbtree=1 / bitrate=1500 / ratetol=1.0 / qcomp=0.60 / qpmin=0 / qpmax=69 / qpstep=4 / cplxblur=20.0 / qblur=0.5 / vbv_maxrate=62500 / vbv_bufsize=78125 / nal_hrd=none / filler=0 / ip_ratio=1.40 / aq=1:1.00
Default : Да
Forced : Нет
Аудио #1
Идентификатор : 2
Формат : AC-3
Формат/Информация : Audio Coding 3
Расширение режима : CM (complete main)
Параметр Endianness формата : Big
Идентификатор кодека : A_AC3
Продолжительность : 4 м. 44 с.
Вид битрейта : Постоянный
Битрейт : 192 Кбит/сек
Каналы : 2 канала
Расположение каналов : Front: L R
Частота : 48,0 КГц
Битовая глубина : 16 бит
Метод сжатия : С потерями
Размер потока : 6,50 Мбайт (10%)
Язык : Russian
Default : Нет
Forced : Нет
Аудио #2
Идентификатор : 3
Формат : AC-3
Формат/Информация : Audio Coding 3
Расширение режима : CM (complete main)
Параметр Endianness формата : Big
Идентификатор кодека : A_AC3
Продолжительность : 4 м. 44 с.
Вид битрейта : Постоянный
Битрейт : 192 Кбит/сек
Каналы : 2 канала
Расположение каналов : Front: L R
Частота : 48,0 КГц
Битовая глубина : 16 бит
Метод сжатия : С потерями
Размер потока : 6,50 Мбайт (10%)
Язык : French
Default : Да
Forced : Нет
Текст
Идентификатор : 4
Формат : UTF-8
Идентификатор кодека : S_TEXT/UTF8
Идентификатор кодека/Информация : UTF-8 Plain Text
Язык : Russian
Default : Нет
Forced : Нет

Скриншоты

Резервные скриншоты

-[2'266]
[teatrix.ru].t21138.torrent 
Торрент: Зарегистрирован [ 2016-03-20 00:52 ] · B504C953A01F3C6D1ED775570584CA549823BD0B

Скачать .torrent

Скачать

20 KB

Статус: проверено
Скачан: 0 раз
Размер: 64 MB
terms.php



Показать сообщения:    

Текущее время: 04-Дек 19:21

Часовой пояс: UTC + 3


Вы не можете начинать темы
Вы не можете отвечать на сообщения
Вы не можете редактировать свои сообщения
Вы не можете удалять свои сообщения
Вы не можете голосовать в опросах
Вы не можете прикреплять файлы к сообщениям
Вы можете скачивать файлы