(Choral) 75 Jahre Christophorus - Mit Geist und Seele • Rosenmüller • von Meissen • Ferdinand III • Hasse • Schubert • di Lasso • Praetorius et all - 2010, APE (image+.cue) lossless


Статистика раздачи [Обновить пиров]
Размер:  354 MB   |    Зарегистрирован:  8 месяцев 19 дней   |    Скачан:  0 раз

Полного источника не было: Никогда

 
   
 
 
 

[Цитировать]

75 Jahre Christophorus - Mit Geist und Seele
Жанр: Choral
Страна-производитель диска: Germany
Год издания диска: 2010
Издатель (лейбл): Christophorus Records
Номер по каталогу: CHR 77004
Аудиокодек: APE
Тип рипа: image+.cue
Битрейт аудио: lossless
Продолжительность: 76'02
Источник: собственный рип
Наличие сканов в содержимом раздачи: да
Треклист/Исполнители:
1. Johann Rosenmüller - Siehe an die Werke Gottes a 15 [Johann Rosenmüller Ensemble, Arno Paduch]
2. Heinrich von Meissen, genannt Frauenlob - In Gottes Schoß aus Der Taugenhort [per-sonat, Sabine Lutzenberger]
3. Ferdinand III. - Jesu Corona Virginum [Franz Vitzthum, Les Escapades]
4. Johann Adolf Hasse - Concerto h-moll (1. Satz) [Laurence Dean, Hannoversche Hofkapelle]
5. Franz Schubert - Nachtstück op.36,2 [Christoph Prégardien, Tilman Hoppstock]
6. G.P. da Palestrina, G.A. Dragoni - Gloria aus Missa Cantantibus organis [ensemble officium, Wilfried Rombach]
7. Antonio Valente - Lo ballo dell'intorcia [Rebecca Maurer]
8. Orlando di Lasso - Audite nova [Stimmwerck]
9. Kassia - Petron ke Pavion [VocaMe]
10. Robert de Visée - Gigue aus Suite en la mineur [ornamente 99, Karsten Erik Ose]
11. Gregorianisch - Introitus Scio cui credidi [Exsulia Sion Freiburg, Chr. Hönerlage]
12. Henry Purcell - Sebell [Ensemble Mediolanum]
13. Gregorianisch - Hymnus Bernardus, doctor inclytus [ensemble officium, W Romhach]
14. Anonymus - Danse (Manuscrit du Roi, Frankreich c.1250) [Spielleyt, Early Music Freiburg]
15. Göttliche Liturgie des hl. Johannes Chrysostomos - Kondak [Mönchschor des Danilov Klosters Moskau, G. Safonov]
16. Michael Praetorius - Les Passepiedz de Bretaigne [I Ciarlatani]
17. Pierre Passerau - Il est bel et bon [Les Haulz et les Ba]
18. Guiot de Dijon - Chanterai por corage [Estampie]
19. Cantigas de Santa Maria - Virga Jesse [Ensemble Kantika, Kristin Hoefener]
20. Walther Von Der Vogelweide - Unter der Linden [Estampie]
21. Josquin Desprez - Cueurs desolez - Plorans ploravit [chant 1450]
22. G.F.Händel - Allegro aus 'Feuerwerksmusik [Trompetenensemble Joachim Schäfer]

Лог создания рипа

Exact Audio Copy V1.0 beta 3 from 29. August 2011
EAC extraction logfile from 8. May 2015, 10:53
75 Jahre Christophorus / Mit Geist und Seele
Used drive : TSSTcorpCDDVDW SE-208AB Adapter: 1 ID: 0
Read mode : Secure
Utilize accurate stream : Yes
Defeat audio cache : Yes
Make use of C2 pointers : No
Read offset correction : 6
Overread into Lead-In and Lead-Out : No
Fill up missing offset samples with silence : Yes
Delete leading and trailing silent blocks : No
Null samples used in CRC calculations : Yes
Used interface : Native Win32 interface for Win NT & 2000
Used output format : Monkey's Audio Lossless Encoder
Selected bitrate : High Lossless Compression
Quality : High
Add ID3 tag : Yes
Command line compressor : C:\Program Files (x86)\Exact Audio Copy\MAC\MAC.exe
TOC of the extracted CD
Track | Start | Length | Start sector | End sector
---------------------------------------------------------
1 | 0:00.00 | 5:34.00 | 0 | 25049
2 | 5:34.00 | 2:31.00 | 25050 | 36374
3 | 8:05.00 | 3:57.00 | 36375 | 54149
4 | 12:02.00 | 4:03.00 | 54150 | 72374
5 | 16:05.00 | 5:44.00 | 72375 | 98174
6 | 21:49.00 | 6:56.00 | 98175 | 129374
7 | 28:45.00 | 2:16.00 | 129375 | 139574
8 | 31:01.00 | 1:42.00 | 139575 | 147224
9 | 32:43.00 | 3:02.00 | 147225 | 160874
10 | 35:45.00 | 0:58.00 | 160875 | 165224
11 | 36:43.00 | 3:37.00 | 165225 | 181499
12 | 40:20.00 | 1:05.00 | 181500 | 186374
13 | 41:25.00 | 2:35.00 | 186375 | 197999
14 | 44:00.00 | 3:24.00 | 198000 | 213299
15 | 47:24.00 | 1:38.00 | 213300 | 220649
16 | 49:02.00 | 2:49.00 | 220650 | 233324
17 | 51:51.00 | 1:19.00 | 233325 | 239249
18 | 53:10.00 | 6:16.00 | 239250 | 267449
19 | 59:26.00 | 4:43.00 | 267450 | 288674
20 | 64:09.00 | 4:32.00 | 288675 | 309074
21 | 68:41.00 | 1:59.00 | 309075 | 317999
22 | 70:40.00 | 5:22.00 | 318000 | 342149
Range status and errors
Selected range
Filename D:\EAC\75 Jahre Christophorus - Mit Geist und Seele.wav
Peak level 96.3 %
Extraction speed 5.2 X
Range quality 99.9 %
Test CRC 1463F27A
Copy CRC 1463F27A
Copy OK
No errors occurred
AccurateRip summary
Track 1 accurately ripped (confidence 4) [3D67F8A5] (AR v2)
Track 2 accurately ripped (confidence 4) [5549A9D8] (AR v2)
Track 3 accurately ripped (confidence 4) [2913BEF2] (AR v2)
Track 4 accurately ripped (confidence 4) [8DEC1115] (AR v2)
Track 5 accurately ripped (confidence 4) [6B0882BF] (AR v2)
Track 6 accurately ripped (confidence 4) [4D699B0F] (AR v2)
Track 7 accurately ripped (confidence 4) [1D9D2A48] (AR v2)
Track 8 accurately ripped (confidence 4) [99ADB333] (AR v2)
Track 9 accurately ripped (confidence 4) [00964E6E] (AR v2)
Track 10 accurately ripped (confidence 4) [3EB13D9C] (AR v2)
Track 11 accurately ripped (confidence 4) [91F5EA13] (AR v2)
Track 12 accurately ripped (confidence 4) [41685FEC] (AR v2)
Track 13 accurately ripped (confidence 4) [17BF1267] (AR v2)
Track 14 accurately ripped (confidence 4) [A4CC8C8E] (AR v2)
Track 15 accurately ripped (confidence 4) [4A148FCF] (AR v2)
Track 16 accurately ripped (confidence 4) [59BA43A6] (AR v2)
Track 17 accurately ripped (confidence 4) [6EE4494C] (AR v2)
Track 18 accurately ripped (confidence 4) [FF239863] (AR v2)
Track 19 accurately ripped (confidence 4) [DB1DBF60] (AR v2)
Track 20 accurately ripped (confidence 4) [EAC4A7D1] (AR v2)
Track 21 accurately ripped (confidence 4) [E8804290] (AR v2)
Track 22 accurately ripped (confidence 4) [E5493A95] (AR v2)
All tracks accurately ripped
End of status report
---- CUETools DB Plugin V2.1.3
[CTDB TOCID: mlabVBo7VPgs641uji0eHe_tVaQ-] disk not present in database, Submit result: mlabVBo7VPgs641uji0eHe_tVaQ- has been uploaded
==== Log checksum 4BA6AB50990C4924EC23A654F0D0E3E6B797F28AA77B844AA7DB669A1E91C556 ====

Содержание индексной карты (.CUE)

REM GENRE Chorus
REM DATE 2010
REM DISCID 4211D216
REM COMMENT "ExactAudioCopy v1.0b3"
PERFORMER "75 Jahre Christophorus"
TITLE "Mit Geist und Seele"
FILE "75 Jahre Christophorus - Mit Geist und Seele.ape" WAVE
TRACK 01 AUDIO
TITLE "Johann Rosenmüller - Siehe an die Werke Gottes a 15"
PERFORMER "Johann Rosenmüller Ensemble, Arno Paduch"
INDEX 01 00:00:00
TRACK 02 AUDIO
TITLE "Heinrich von Meissen, genannt Frauenlob - In Gottes Schoß aus Der Taugenhort"
PERFORMER "per-sonat, Sabine Lutzenberger"
INDEX 00 05:31:00
INDEX 01 05:34:00
TRACK 03 AUDIO
TITLE "Ferdinand III. - Jesu Corona Virginum"
PERFORMER "Franz Vitzthum, Les Escapades"
INDEX 00 08:02:00
INDEX 01 08:05:00
TRACK 04 AUDIO
TITLE "Johann Adolf Hasse - Concerto h-moll (1. Satz)"
PERFORMER "Laurence Dean, Hannoversche Hofkapelle"
INDEX 00 11:59:00
INDEX 01 12:02:00
TRACK 05 AUDIO
TITLE "Franz Schubert - Nachtstück op.36,2"
PERFORMER "Christoph Prégardien, Tilman Hoppstock"
INDEX 00 16:02:00
INDEX 01 16:05:00
TRACK 06 AUDIO
TITLE "G.P. da Palestrina, G.A. Dragoni - Gloria aus Missa Cantantibus organis"
PERFORMER "ensemble officium, Wilfried Rombach"
INDEX 00 21:46:00
INDEX 01 21:49:00
TRACK 07 AUDIO
TITLE "Antonio Valente - Lo ballo dell'intorcia"
PERFORMER "Rebecca Maurer"
INDEX 00 28:42:00
INDEX 01 28:45:00
TRACK 08 AUDIO
TITLE "Orlando di Lasso - Audite nova"
PERFORMER "Stimmwerck"
INDEX 00 30:58:00
INDEX 01 31:01:00
TRACK 09 AUDIO
TITLE "Kassia - Petron ke Pavion"
PERFORMER "VocaMe"
INDEX 00 32:40:00
INDEX 01 32:43:00
TRACK 10 AUDIO
TITLE "Robert de Visée - Gigue aus Suite en la mineur"
PERFORMER "ornamente 99, Karsten Erik Ose"
INDEX 00 35:42:00
INDEX 01 35:45:00
TRACK 11 AUDIO
TITLE "Gregorianisch - Introitus Scio cui credidi"
PERFORMER "Exsulia Sion Freiburg, Chr. Hönerlage"
INDEX 00 36:40:00
INDEX 01 36:43:00
TRACK 12 AUDIO
TITLE "Henry Purcell - Sebell"
PERFORMER "Ensemble Mediolanum"
INDEX 00 40:17:00
INDEX 01 40:20:00
TRACK 13 AUDIO
TITLE "ensemble officium, W Romhach - Gregorianisch - Hymnus Bernardus, doctor inclytus"
PERFORMER "75 Jahre Christophorus"
INDEX 00 41:22:00
INDEX 01 41:25:00
TRACK 14 AUDIO
TITLE "Anonymus - Danse (Manuscrit du Roi, Frankreich c.1250)"
PERFORMER "Spielleyt, Early Music Freiburg"
INDEX 00 43:57:00
INDEX 01 44:00:00
TRACK 15 AUDIO
TITLE "Göttliche Liturgie des hl. Johannes Chrysostomos - Kondak"
PERFORMER "Mönchschor des Danilov Klosters Moskau, G. Safonov"
INDEX 00 47:21:00
INDEX 01 47:24:00
TRACK 16 AUDIO
TITLE "Michael Praetorius - Les Passepiedz de Bretaigne"
PERFORMER "I Ciarlatani"
INDEX 00 48:59:00
INDEX 01 49:02:00
TRACK 17 AUDIO
TITLE "Pierre Passerau - Il est bel et bon"
PERFORMER "Les Haulz et les Ba"
INDEX 00 51:48:00
INDEX 01 51:51:00
TRACK 18 AUDIO
TITLE "Guiot de Dijon - Chanterai por corage"
PERFORMER "Estampie"
INDEX 00 53:07:00
INDEX 01 53:10:00
TRACK 19 AUDIO
TITLE "Cantigas de Santa Maria - Virga Jesse"
PERFORMER "Ensemble KANTIKA, Kristin Hoefener"
INDEX 00 59:23:00
INDEX 01 59:26:00
TRACK 20 AUDIO
TITLE "Walther Von Der Vogelweide - Unter der Linden"
PERFORMER "Estampie"
INDEX 00 64:06:00
INDEX 01 64:09:00
TRACK 21 AUDIO
TITLE "Josquin Desprez - Cueurs desolez - Plorans ploravit"
PERFORMER "chant 1450"
INDEX 00 68:38:00
INDEX 01 68:41:00
TRACK 22 AUDIO
TITLE "G.F.Händel - Allegro aus 'Feuerwerksmusik'"
PERFORMER "Trompetenensemble Joachim Schäfer"
INDEX 00 70:37:00
INDEX 01 70:40:00
[teatrix.ru].t21139.torrent 
Торрент: Зарегистрирован [ 2016-03-20 00:52 ] · A880D5B5813C19D0942C6BC1463F71F219097C85

Скачать .torrent

Скачать

15 KB

Статус: проверено
Скачан: 0 раз
Размер: 354 MB
terms.php



Быстрый ответ

Имя:

      
Для отправки сообщений необходимо включить JavaScript
Показать сообщения:    

Текущее время: 08-Дек 19:12

Часовой пояс: UTC + 3


Вы можете начинать темы
Вы можете отвечать на сообщения
Вы не можете редактировать свои сообщения
Вы не можете удалять свои сообщения
Вы не можете голосовать в опросах
Вы не можете прикреплять файлы к сообщениям
Вы можете скачивать файлы