(Classical Orchestral) Wagner - The complete overtures & orchestral music from the operas (The Philharmonia Orchestra, Yuri Simonov / Francesco d'Avalos) - 2006, APE (image+.cue) lossless


 

[Цитировать]

Richard Wagner - The complete overtures & orchestral music from the operas
Жанр: Classical
Страна-производитель диска: EU
Год издания диска: 2006
Издатель (лейбл): Brilliant
Номер по каталогу: 99493-2
Дата записи: 2001
Аудиокодек: APE
Тип рипа: image+.cue
Битрейт аудио: lossless
Продолжительность: 67'30+63'26+62'38
Источник: собственный рип
Наличие сканов в содержимом раздачи: да
Треклист/Исполнители:

CD1

1. Parsifal - Prelude
2. Der Ring der Nibelungen - Ride of the Valkyries
3. Der Ring der Nibelungen - Forest murmers
4. Der Ring der Nibelungen - Siegfried's Rhine Journey
5. Der Ring der Nibelungen - Siegfried's Funeral Music
6. Tristan & Isolde - Prelude & Liebestod

CD2

1. Rienzi - Overture
2. Der fliegende Holländer - Overture
3. Tannhäuser - Overture
4. Lohengrin - Prelude to Act I
5. Lohengrin - Prelude to Act III
6. Die Meistersinger von Nürnberg - Overture
The Philharmonia Orchestra
Yuri Simonov

CD3

1. Die Feen: Overture
2. Das Liebesverbot: Overture
3. Rienzi: Overture
4. Parsifal: Good Friday Music
5. Siegfried Idyll
The Philharmonia Orchestra
Francesco d'Avalos

Лог создания рипа

CD1

Exact Audio Copy V1.0 beta 3 from 29. August 2011
EAC extraction logfile from 2. August 2014, 18:03
Wagner / The complete overtures & orchestral music from the operas - CD1
Used drive : HL-DT-STDVDRAM GH22NS50 Adapter: 0 ID: 2
Read mode : Secure
Utilize accurate stream : Yes
Defeat audio cache : Yes
Make use of C2 pointers : No
Read offset correction : 667
Overread into Lead-In and Lead-Out : No
Fill up missing offset samples with silence : Yes
Delete leading and trailing silent blocks : No
Null samples used in CRC calculations : Yes
Used interface : Native Win32 interface for Win NT & 2000
Used output format : Monkey's Audio Lossless Encoder
Selected bitrate : High Lossless Compression
Quality : High
Add ID3 tag : No
Command line compressor : C:\Program Files (x86)\Exact Audio Copy\MAC\MAC.exe
TOC of the extracted CD
Track | Start | Length | Start sector | End sector
---------------------------------------------------------
1 | 0:00.33 | 14:33.05 | 33 | 65512
2 | 14:33.38 | 4:55.10 | 65513 | 87647
3 | 19:28.48 | 8:30.50 | 87648 | 125947
4 | 27:59.23 | 12:58.00 | 125948 | 184297
5 | 40:57.23 | 8:13.00 | 184298 | 221272
6 | 49:10.23 | 18:20.15 | 221273 | 303787
Range status and errors
Selected range
Filename D:\EAC\Wagner - The complete overtures & orchestral music from the operas - CD1.wav
Peak level 100.0 %
Extraction speed 2.1 X
Range quality 100.0 %
Test CRC C4B434B2
Copy CRC C4B434B2
Copy OK
No errors occurred
AccurateRip summary
Track 1 accurately ripped (confidence 6) [52A4C453] (AR v2)
Track 2 accurately ripped (confidence 6) [6E597C92] (AR v2)
Track 3 accurately ripped (confidence 6) [0DEA69E2] (AR v2)
Track 4 accurately ripped (confidence 6) [0FEC65B7] (AR v2)
Track 5 accurately ripped (confidence 5) [14004548] (AR v2)
Track 6 accurately ripped (confidence 5) [AE842BF6] (AR v2)
All tracks accurately ripped
End of status report
---- CUETools DB Plugin V2.1.3
[CTDB TOCID: J34G5yNm0PuVp7TBIbEH5UJLrLc-] disk not present in database, Submit result: discs with pregaps not supported in this protocol version
==== Log checksum F7893C9903BD8B6B5C7C7BA2A7D2D5414CC2E04C93995F3ED3A631F04FB5E93B ====

CD2

Exact Audio Copy V1.0 beta 3 from 29. August 2011
EAC extraction logfile from 2. August 2014, 17:55
Wagner / The complete overtures & orchestral music from the operas - CD2
Used drive : TS8XDVDSTRANSCEND Adapter: 1 ID: 0
Read mode : Secure
Utilize accurate stream : Yes
Defeat audio cache : Yes
Make use of C2 pointers : No
Read offset correction : 6
Overread into Lead-In and Lead-Out : No
Fill up missing offset samples with silence : Yes
Delete leading and trailing silent blocks : No
Null samples used in CRC calculations : Yes
Used interface : Native Win32 interface for Win NT & 2000
Used output format : Monkey's Audio Lossless Encoder
Selected bitrate : High Lossless Compression
Quality : High
Add ID3 tag : No
Command line compressor : C:\Program Files (x86)\Exact Audio Copy\MAC\MAC.exe
TOC of the extracted CD
Track | Start | Length | Start sector | End sector
---------------------------------------------------------
1 | 0:00.17 | 13:21.20 | 17 | 60111
2 | 13:21.37 | 10:45.60 | 60112 | 108546
3 | 24:07.22 | 15:23.20 | 108547 | 177791
4 | 39:30.42 | 10:43.08 | 177792 | 226024
5 | 50:13.50 | 3:09.62 | 226025 | 240261
6 | 53:23.37 | 10:02.58 | 240262 | 285469
Range status and errors
Selected range
Filename D:\EAC\Wagner - The complete overtures & orchestral music from the operas - CD2.wav
Peak level 100.0 %
Extraction speed 1.9 X
Range quality 100.0 %
Test CRC FBDB2C16
Copy CRC FBDB2C16
Copy OK
No errors occurred
AccurateRip summary
Track 1 accurately ripped (confidence 7) [F87AB0DC] (AR v2)
Track 2 accurately ripped (confidence 7) [53937808] (AR v2)
Track 3 accurately ripped (confidence 7) [67CAB2CE] (AR v2)
Track 4 accurately ripped (confidence 7) [F8CBAEA6] (AR v2)
Track 5 accurately ripped (confidence 7) [FEBE5FCD] (AR v2)
Track 6 accurately ripped (confidence 7) [EA352A12] (AR v2)
All tracks accurately ripped
End of status report
---- CUETools DB Plugin V2.1.3
[CTDB TOCID: SYQXVuPcDqUFZlQwWWtcclm5Ozk-] disk not present in database, Submit result: discs with pregaps not supported in this protocol version
==== Log checksum B4C40C71D236D53B0957C4765CCE73FFA867354D11B007321BFAF62514B83B0D ====

CD3

Exact Audio Copy V1.0 beta 3 from 29. August 2011
EAC extraction logfile from 2. August 2014, 17:46
Wagner / The complete overtures & orchestral music from the operas - CD3
Used drive : TSSTcorpCDDVDW SE-208AB Adapter: 1 ID: 1
Read mode : Secure
Utilize accurate stream : Yes
Defeat audio cache : Yes
Make use of C2 pointers : No
Read offset correction : 6
Overread into Lead-In and Lead-Out : No
Fill up missing offset samples with silence : Yes
Delete leading and trailing silent blocks : No
Null samples used in CRC calculations : Yes
Used interface : Native Win32 interface for Win NT & 2000
Used output format : Monkey's Audio Lossless Encoder
Selected bitrate : High Lossless Compression
Quality : High
Add ID3 tag : No
Command line compressor : C:\Program Files (x86)\Exact Audio Copy\MAC\MAC.exe
TOC of the extracted CD
Track | Start | Length | Start sector | End sector
---------------------------------------------------------
1 | 0:01.00 | 11:12.53 | 75 | 50527
2 | 11:13.53 | 9:59.53 | 50528 | 95505
3 | 21:13.31 | 11:00.29 | 95506 | 145034
4 | 32:13.60 | 10:07.69 | 145035 | 190628
5 | 42:21.54 | 19:30.12 | 190629 | 278390
Range status and errors
Selected range
Filename D:\EAC\Wagner - The complete overtures & orchestral music from the operas - CD3.wav
Peak level 99.9 %
Extraction speed 1.9 X
Range quality 100.0 %
Test CRC FC7E92C3
Copy CRC FC7E92C3
Copy OK
No errors occurred
AccurateRip summary
Track 1 accurately ripped (confidence 7) [EA2A6732] (AR v2)
Track 2 accurately ripped (confidence 7) [D0F7751D] (AR v2)
Track 3 accurately ripped (confidence 7) [DC973C62] (AR v2)
Track 4 accurately ripped (confidence 7) [EA5B1258] (AR v2)
Track 5 accurately ripped (confidence 6) [1266CD71] (AR v2)
All tracks accurately ripped
End of status report
---- CUETools DB Plugin V2.1.3
[CTDB TOCID: 7Blu6cpcGMo.vkLCRCTuHbRa.m8-] disk not present in database, Submit result: discs with pregaps not supported in this protocol version
==== Log checksum DD82D7D43B1ADEDBCAF747DE8EB02C0CB7C55AFAEA409A4540F7B26C98F5A507 ====

Содержание индексной карты (.CUE)

CD1

REM GENRE Orchestral
REM DISCID 550FD206
REM COMMENT "ExactAudioCopy v1.0b3"
PERFORMER "Wagner"
TITLE "The complete overtures & orchestral music from the operas - CD1"
FILE "Wagner - The complete overtures & orchestral music from the operas - CD1.ape" WAVE
TRACK 01 AUDIO
TITLE "Parsifal - Prelude"
PERFORMER "Wagner"
INDEX 00 00:00:00
INDEX 01 00:00:33
TRACK 02 AUDIO
TITLE "Der Ring der Nibelungen - Ride of the Valkyries"
PERFORMER "Wagner"
INDEX 00 14:27:20
INDEX 01 14:33:38
TRACK 03 AUDIO
TITLE "Der Ring der Nibelungen - Forest murmers"
PERFORMER "Wagner"
INDEX 00 19:22:63
INDEX 01 19:28:48
TRACK 04 AUDIO
TITLE "Der Ring der Nibelungen - Siegfried's Rhine Journey"
PERFORMER "Wagner"
INDEX 00 27:53:38
INDEX 01 27:59:23
TRACK 05 AUDIO
TITLE "Der Ring der Nibelungen - Siegfried's Funeral Music"
PERFORMER "Wagner"
INDEX 00 40:52:20
INDEX 01 40:57:23
TRACK 06 AUDIO
TITLE "Tristan & Isolde - Prelude & Liebestod"
PERFORMER "Wagner"
INDEX 00 49:04:21
INDEX 01 49:10:23

CD2

REM GENRE Orchestral
REM DISCID 400EDE06
REM COMMENT "ExactAudioCopy v1.0b3"
PERFORMER "Wagner"
TITLE "The complete overtures & orchestral music from the operas - CD2"
FILE "Wagner - The complete overtures & orchestral music from the operas - CD2.ape" WAVE
TRACK 01 AUDIO
TITLE "Rienzi - Overture"
PERFORMER "Wagner"
INDEX 00 00:00:00
INDEX 01 00:00:17
TRACK 02 AUDIO
TITLE "Der fliegende Holländer - Overture"
PERFORMER "Wagner"
INDEX 00 13:13:72
INDEX 01 13:21:37
TRACK 03 AUDIO
TITLE "Tannhäuser - Overture"
PERFORMER "Wagner"
INDEX 00 23:58:37
INDEX 01 24:07:22
TRACK 04 AUDIO
TITLE "Lohengrin - Prelude to Act I"
PERFORMER "Wagner"
INDEX 00 39:23:30
INDEX 01 39:30:42
TRACK 05 AUDIO
TITLE "Lohengrin - Prelude to Act III"
PERFORMER "Wagner"
INDEX 00 50:08:07
INDEX 01 50:13:50
TRACK 06 AUDIO
TITLE "Die Meistersinger von Nürnberg - Overture"
PERFORMER "Wagner"
INDEX 00 53:15:72
INDEX 01 53:23:37

CD3

REM GENRE Orchestral
REM DISCID 440E7E05
REM COMMENT "ExactAudioCopy v1.0b3"
PERFORMER "Wagner"
TITLE "The complete overtures & orchestral music from the operas - CD3"
FILE "Wagner - The complete overtures & orchestral music from the operas - CD3.ape" WAVE
TRACK 01 AUDIO
TITLE "Die Feen: Overture"
PERFORMER "Wagner"
FLAGS DCP
INDEX 00 00:00:00
INDEX 01 00:01:00
TRACK 02 AUDIO
TITLE "Das Liebesverbot: Overture"
PERFORMER "Wagner"
FLAGS DCP
INDEX 00 11:11:08
INDEX 01 11:13:53
TRACK 03 AUDIO
TITLE "Rienzi: Overture"
PERFORMER "Wagner"
FLAGS DCP
INDEX 00 21:10:61
INDEX 01 21:13:31
TRACK 04 AUDIO
TITLE "Parsifal: Good Friday Music"
PERFORMER "Wagner"
FLAGS DCP
INDEX 00 32:11:15
INDEX 01 32:13:60
TRACK 05 AUDIO
TITLE "Siegfried Idyll"
PERFORMER "Wagner"
FLAGS DCP
INDEX 00 42:19:09
INDEX 01 42:21:54



Показать сообщения:    

Текущее время: 11-Дек 14:59

Часовой пояс: UTC + 3


Вы не можете начинать темы
Вы не можете отвечать на сообщения
Вы не можете редактировать свои сообщения
Вы не можете удалять свои сообщения
Вы не можете голосовать в опросах
Вы не можете прикреплять файлы к сообщениям
Вы не можете скачивать файлы