Концерт "Песни непокоренной державы" [2015, музыкальный спектакль, концерт , DVB-AVC]


Статистика раздачи [Обновить пиров]
Размер:  1.74 GB   |    Зарегистрирован:  8 месяцев 22 дня   |    Скачан:  0 раз

Полного источника не было: Никогда

 
   
 
 
 

[Цитировать]

Концерт "Песни непокоренной державы"
Год выпуска: 2015
Страна: Россия
Жанр: музыкальный спектакль, концерт
Продолжительность: 01:32:57
Субтитры: русские (Teletext)
Перевод: Не требуется
Описание: Музыкальный спектакль посвящен 70-летию Великой Победы.
Звучат песни М. Блантера, Б. Мокроусова, В. Соловьева-Седого, А. Эшпая, М. Фрадкина, Н. Богословского, М. Табачникова, Б. Окуджавы и других композиторов в исполнении Владимира Зельдина, Александра Домогарова, Ивана Охлобыстина, Александра Ф.Скляра и др.
В спектакле принимают участие Государственный академический русский народный хор им. М.Е. Пятницкого под руководством народной артистки России Александры Пермяковой, Российский государственный академический камерный "Вивальди-оркестр" под управлением Светланы Безродной и выпускники Российской государственной специализированной академии искусств.
Треклист: требуется помощь в составлении
Качество видео: DVB
Формат видео: MPEG-TS
Видео: MPEG4 Video (H264), 720x576@785x576 (4:3), анаморф, 25 fps, 2400 kbps
Аудио: MPEG Audio, 2 сh, 48 kHz, 192 kbps
Трансляция спутникового канала:

MediaInfo

D:\Концерт. Песни непокоренной державы. (2015)_DVB by SLuMeP.ts
General #1
ID : 1 (0x1)
Complete name : D:\Концерт. Песни непокоренной державы. (2015)_DVB by SLuMeP.ts
Format : MPEG-TS
File size : 1.74 GiB
Duration : 1h 32mn
Overall bit rate mode : Variable
Overall bit rate : 2 676 Kbps
Video #324
ID : 324 (0x144)
Menu ID : 1 (0x1)
Format : MPEG Video
Format version : Version 2
Format profile : Main@Main
Format settings, BVOP : Yes
Format settings, Matrix : Custom
Format settings, GOP : Variable
Codec ID : 2
Duration : 1h 32mn
Bit rate mode : Variable
Bit rate : 2 350 Kbps
Maximum bit rate : 15.0 Mbps
Width : 720 pixels
Height : 576 pixels
Display aspect ratio : 4:3
Frame rate : 25.000 fps
Standard : PAL
Color space : YUV
Chroma subsampling : 4:2:0
Bit depth : 8 bits
Scan type : Interlaced
Scan order : Top Field First
Compression mode : Lossy
Bits/(Pixel*Frame) : 0.227
Time code of first frame : 00:00:00:00
Time code source : Group of pictures header
Stream size : 1.53 GiB (88%)
Audio #408
ID : 408 (0x198)
Menu ID : 1 (0x1)
Format : MPEG Audio
Format version : Version 1
Format profile : Layer 2
Codec ID : 3
Duration : 1h 32mn
Bit rate mode : Constant
Bit rate : 192 Kbps
Channel(s) : 2 channels
Sampling rate : 48.0 KHz
Compression mode : Lossy
Delay relative to video : 9ms
Stream size : 128 MiB (7%)
Language : Russian
Text #508-100
ID : 508 (0x1FC)-100
Menu ID : 1 (0x1)
Format : Teletext
Language : Russian
Menu #124
ID : 124 (0x7C)
Menu ID : 1 (0x1)
Duration : 1h 32mn
List : 324 (0x144) (MPEG Video) / 408 (0x198) (MPEG Audio, Russian) / 508 (0x1FC) ()
Language : / Russian

Скриншоты


[teatrix.ru].t21143.torrent 
Торрент: Зарегистрирован [ 2016-03-20 00:52 ] · B5F15211D3A1CB03839E94E3797B86F80084123A

Скачать .torrent

Скачать

18 KB

Статус: проверено
Скачан: 0 раз
Размер: 1.74 GB
terms.php



Быстрый ответ

Имя:

      
Для отправки сообщений необходимо включить JavaScript
Показать сообщения:    

Текущее время: 11-Дек 01:29

Часовой пояс: UTC + 3


Вы можете начинать темы
Вы можете отвечать на сообщения
Вы не можете редактировать свои сообщения
Вы не можете удалять свои сообщения
Вы не можете голосовать в опросах
Вы не можете прикреплять файлы к сообщениям
Вы можете скачивать файлы