(Classical) Luigi Boccherini - Cello Sonatas - Richard Lester, David Watkin, Chi-chi Nwanoku - 2007, FLAC (image+.cue) lossless


 

[Цитировать]

Luigi Boccherini - Cello Sonatas - Richard Lester, David Watkin, Chi-chi Nwanoku
Жанр: Classical
Страна-производитель диска: UK
Год издания диска: 2007
Издатель (лейбл): Hyperion
Номер по каталогу: CDH55219
Дата записи: 1994
Аудиокодек: FLAC
Тип рипа: image+.cue
Битрейт аудио: lossless
Продолжительность: 67:30
Источник: собственный рип
Наличие сканов в содержимом раздачи: да
Треклист:
Luigi Boccherini (1743-1805)
[1]-[3] Sonata in C major, G17 (with cello)
[4]-[6] Sonata in E flat major, G10 (with cello)
[7]-[9] Sonata in C minor, G2 (with bass)
[10]-[12] Sonata in A major, G4 (with cello)
[13]-[17] Sonata in B flat major, G565 (with bass)
Исполнители:
Richard Lester cello
David Watkin cello
Chi-chi Nwanoku double bass

Лог создания рипа

Exact Audio Copy V1.0 beta 3 from 29. August 2011
EAC extraction logfile from 6. May 2015, 20:24
Richard Lester, David Watkin, Chi-chi Nwanoku / Bocherini - Cello Sonatas
Used drive : HL-DT-STDVDRAM GU70N Adapter: 0 ID: 0
Read mode : Secure
Utilize accurate stream : Yes
Defeat audio cache : Yes
Make use of C2 pointers : No
Read offset correction : 48
Overread into Lead-In and Lead-Out : No
Fill up missing offset samples with silence : Yes
Delete leading and trailing silent blocks : No
Null samples used in CRC calculations : Yes
Used interface : Native Win32 interface for Win NT & 2000
Used output format : User Defined Encoder
Selected bitrate : 128 kBit/s
Quality : High
Add ID3 tag : No
Command line compressor : C:\Program Files (x86)\Exact Audio Copy\Flac\flac.exe
Additional command line options : -V -8 -T "Date=%year%" -T "Genre=%genre%" %source%
TOC of the extracted CD
Track | Start | Length | Start sector | End sector
---------------------------------------------------------
1 | 0:00.32 | 5:51.70 | 32 | 26426
2 | 5:52.27 | 3:15.55 | 26427 | 41106
3 | 9:08.07 | 3:33.03 | 41107 | 57084
4 | 12:41.10 | 4:08.35 | 57085 | 75719
5 | 16:49.45 | 4:35.02 | 75720 | 96346
6 | 21:24.47 | 3:13.08 | 96347 | 110829
7 | 24:37.55 | 4:55.45 | 110830 | 132999
8 | 29:33.25 | 4:48.37 | 133000 | 154636
9 | 34:21.62 | 3:29.08 | 154637 | 170319
10 | 37:50.70 | 5:53.17 | 170320 | 196811
11 | 43:44.12 | 3:27.40 | 196812 | 212376
12 | 47:11.52 | 4:57.63 | 212377 | 234714
13 | 52:09.40 | 6:55.65 | 234715 | 265904
14 | 59:05.30 | 2:54.15 | 265905 | 278969
15 | 61:59.45 | 1:09.32 | 278970 | 284176
16 | 63:09.02 | 0:34.03 | 284177 | 286729
17 | 63:43.05 | 3:45.02 | 286730 | 303606
Range status and errors
Selected range
Filename C:\temp\CDH55219 - Boccherini - Cello Sonatas\Bocherini - Cello Sonatas.wav
Peak level 100.0 %
Extraction speed 5.2 X
Range quality 99.9 %
Test CRC BD76863B
Copy CRC BD76863B
Copy OK
No errors occurred
AccurateRip summary
Track 1 accurately ripped (confidence 2) [CEBC150A] (AR v2)
Track 2 accurately ripped (confidence 2) [ED605B69] (AR v2)
Track 3 accurately ripped (confidence 2) [33AF5A0C] (AR v2)
Track 4 accurately ripped (confidence 2) [0C65106C] (AR v2)
Track 5 accurately ripped (confidence 2) [E522F38B] (AR v2)
Track 6 accurately ripped (confidence 2) [9A3C4DE2] (AR v2)
Track 7 accurately ripped (confidence 2) [78697E6E] (AR v2)
Track 8 accurately ripped (confidence 2) [5E3D854B] (AR v2)
Track 9 accurately ripped (confidence 2) [F5D4D30F] (AR v2)
Track 10 accurately ripped (confidence 2) [3086AE6D] (AR v2)
Track 11 accurately ripped (confidence 2) [6E652DCA] (AR v2)
Track 12 accurately ripped (confidence 2) [1FD07304] (AR v2)
Track 13 accurately ripped (confidence 2) [0DE757AB] (AR v2)
Track 14 accurately ripped (confidence 2) [B023FF5D] (AR v2)
Track 15 accurately ripped (confidence 2) [19AC734E] (AR v2)
Track 16 accurately ripped (confidence 2) [DFFD5FFE] (AR v2)
Track 17 accurately ripped (confidence 2) [C7ABBB7C] (AR v2)
All tracks accurately ripped
End of status report
==== Log checksum AE645A6B78E8C1C230FA771BCC307CC0A291B892F5E9C5CAE99C194098E812C6 ====



Показать сообщения:    

Текущее время: 07-Дек 15:31

Часовой пояс: UTC + 3


Вы не можете начинать темы
Вы не можете отвечать на сообщения
Вы не можете редактировать свои сообщения
Вы не можете удалять свои сообщения
Вы не можете голосовать в опросах
Вы не можете прикреплять файлы к сообщениям
Вы не можете скачивать файлы