(Classical) [LP] [24/48] Samuil Feinberg - Piano/Самуил Фейнберг - Из Сокровищницы Мирового Исполнительского Искусства - 1980, FLAC (tracks+.cue)


Статистика раздачи [Обновить пиров]
Размер:  239 MB   |    Зарегистрирован:  8 месяцев 19 дней   |    Скачан:  0 раз

Полного источника не было: Никогда

 
   
 
 
 

[Цитировать]

Samuil Feinberg - Piano/Самуил Фейнберг - Из Сокровищницы Мирового Исполнительского Искусства
Жанр: Classical
Носитель: LP
Год выпуска: 1980
Лейбл: Melodya (VSG)
Страна-производитель: USSR
Аудио кодек: FLAC
Тип рипа: tracks+.cue
Формат записи: 32/192
Формат раздачи: 24/48
Продолжительность: 49.11 min
Треклист:
J. S. Bach
01. Preludes And Fuges: 1.in G Sharp Minor, BWV 887
02. Preludes And Fuges: 2.in C Sharp Minor, BWV 873
03. Toccata in C Minor, BWV 873
A. Scriabin
04. Four Mazurkas, Op.25: No.2 in C Major
05. Four Mazurkas, Op.25: No.3 In E Minor
06. Four Mazurkas, Op.25: No.8 in B Major
07. Four Mazurkas, Op.25: No.9 in E Flat Minor
08. Four Pieces, Op. 51: Fragilite Prelude in A Minor
09. Sonata No.4: in F Sharp Major, Op.30
Archive recordings made in:
1961 (1-3), 1951 (4, 6, 7) and 1947 (5, 8-12)
Источник оцифровки: автором раздачи
Код класса состояния винила: NM
Устройство воспроизведения: Электроника ЭП 017С
Головка звукоснимателя: Audio-Technica AT95
Предварительный усилитель: Бриг-001
АЦП: VIA HD audio device
Программа-оцифровщик: Izotope RX 4 Advanced
Обработка: Izotope RX 4 Advanced

Спектр+АЧХ+Уровень записи

DR=13

foobar2000 1.1.10 / Dynamic Range Meter 1.1.1
log date: 2015-05-10 14:15:00
--------------------------------------------------------------------------------
Analyzed: Samuil Feinberg / The World's Leading Interpreters Of Music - Piano
--------------------------------------------------------------------------------
DR Peak RMS Duration Track
--------------------------------------------------------------------------------
DR13 -4.54 dB -24.44 dB 6:03 ?-Preludes And Fuges: 1.in G Sharp Minor, BWV 887
DR13 -5.25 dB -23.37 dB 7:00 ?-Preludes And Fuges: 2.in C Sharp Minor, BWV 873
DR14 -3.55 dB -22.60 dB 11:07 ?-Toccata in C Minor, BWV 873
DR11 -6.31 dB -22.00 dB 3:29 ?-Four Mazurkas, Op.25: No.2 in C Major
DR13 -9.68 dB -27.46 dB 2:07 ?-Four Mazurkas, Op.25: No.3 In E Minor
DR13 -5.74 dB -25.36 dB 2:45 ?-Four Mazurkas, Op.25: No.8 in B Major
DR13 -5.49 dB -23.37 dB 3:33 ?-Four Mazurkas, Op.25: No.9 in E Flat Minor
DR14 -8.34 dB -27.14 dB 6:04 ?-Four Pieces, Op. 51: Fragilite Prelude in A Minor
DR11 -6.25 dB -23.17 dB 7:03 ?-Sonata No.4: in F Sharp Major, Op.30
--------------------------------------------------------------------------------
Number of tracks: 9
Official DR value: DR13
Samplerate: 48000 Hz
Channels: 1
Bits per sample: 24
Bitrate: 656 kbps
Codec: FLAC
================================================================================

Back, Inner & Disc

[teatrix.ru].t21150.torrent 
Торрент: Зарегистрирован [ 2016-03-20 00:52 ] · 2792659D617CD5298888E4510C2E2152B729DC83

Скачать .torrent

Скачать

20 KB

Статус: проверено
Скачан: 0 раз
Размер: 239 MB
terms.php



Быстрый ответ

Имя:

      
Для отправки сообщений необходимо включить JavaScript
Показать сообщения:    

Текущее время: 08-Дек 12:54

Часовой пояс: UTC + 3


Вы можете начинать темы
Вы можете отвечать на сообщения
Вы не можете редактировать свои сообщения
Вы не можете удалять свои сообщения
Вы не можете голосовать в опросах
Вы не можете прикреплять файлы к сообщениям
Вы можете скачивать файлы