[TR24][OF] Johann Sebastian Bach: Sonatas for violin and harpsichord - John Butt, Lucy Russell - 2015 (Baroque, Chamber)


Статистика раздачи [Обновить пиров]
Размер:  1.6 GB   |    Зарегистрирован:  8 месяцев 19 дней   |    Скачан:  0 раз

Полного источника не было: Никогда

 
   
 
 
 

[Цитировать]

Johann Sebastian Bach: Sonatas for violin and harpsichord / John Butt, Lucy Russell
Формат записи/Источник записи: [TR24][OF]
Наличие водяных знаков: Нет
Год издания/переиздания диска: 2015
Жанр: Baroque, Chamber
Издатель(лейбл): Linn Records
Продолжительность: 01:15:07
Исполнители:
Lucy Russell, violin,
John Butt, harpsichord.
Контейнер: FLAC (*.flac)
Тип рипа: tracks
Разрядность: 24/96
Количество каналов: 2.0
Источник: linnrecords

Треклист

Sonata No. 1 in B Minor, BWV 1014:
1. I. Adagio
2. II. Allegro
3. III. Andante
4. IV. Allegro
Sonata No. 2 in A Major, BWV 1015:
5. I. Dolce
6. II. Allegro
7. III. Andante un poco
8. IV. Presto
Sonata No. 3 in E Major, BWV 1016:
9. I. Adagio
10. II. Allegro
11. III. Adagio ma non tanto
12. IV. Allegro
Sonata No. 4 in C Minor, BWV 1017:
13. I. Largo
14. II. Allegro
15. III. Adagio
16. IV. Allegro
Sonata No. 5 in F Minor, BWV 1018:
17. I. Largo
18. II. Allegro
19. III. Adagio
20. IV. Vivace
Sonata No. 6 in G Major, BWV 1019:
21. I. Allegro
22. II. Largo
23. III. Allegro
24. IV. Adagio
25. V. Allegro

Dynamic Range Meter

foobar2000 1.3.6 / Замер динамического диапазона (DR) 1.1.1
Дата отчёта: 2015-08-03 19:31:14
--------------------------------------------------------------------------------
Анализ: John Butt / J.S. Bach: Sonatas for violin & harpsichord
--------------------------------------------------------------------------------
DR Пики RMS Продолжительность трека
--------------------------------------------------------------------------------
DR12 -7.97 дБ -24.63 дБ 3:10 01-Sonata No. 1 in B Minor, BWV 1014: I. Adagio
DR13 -3.11 дБ -21.51 дБ 2:45 02-Sonata No. 1 in B Minor, BWV 1014: II. Allegro
DR14 -7.59 дБ -25.00 дБ 2:55 03-Sonata No. 1 in B Minor, BWV 1014: III. Andante
DR13 -6.12 дБ -21.56 дБ 3:11 04-Sonata No. 1 in B Minor, BWV 1014: IV. Allegro
DR13 -5.49 дБ -24.29 дБ 2:40 05-Sonata No. 2 in A Major, BWV 1015: I. Dolce
DR13 -4.55 дБ -22.15 дБ 3:00 06-Sonata No. 2 in A Major, BWV 1015: II. Allegro
DR12 -10.03 дБ -26.15 дБ 2:43 07-Sonata No. 2 in A Major, BWV 1015: III. Andante un poco
DR13 -5.41 дБ -22.69 дБ 4:10 08-Sonata No. 2 in A Major, BWV 1015: IV. Presto
DR12 -8.82 дБ -24.42 дБ 3:53 09-Sonata No. 3 in E Major, BWV 1016: I. Adagio
DR13 -5.09 дБ -22.24 дБ 2:44 10-Sonata No. 3 in E Major, BWV 1016: II. Allegro
DR12 -9.10 дБ -25.07 дБ 4:17 11-Sonata No. 3 in E Major, BWV 1016: III. Adagio ma non tanto
DR13 -6.66 дБ -22.83 дБ 3:49 12-Sonata No. 3 in E Major, BWV 1016: IV. Allegro
DR16 -3.12 дБ -23.03 дБ 3:29 13-Sonata No. 4 in C Minor, BWV 1017: I. Largo
DR15 -2.49 дБ -22.18 дБ 4:17 14-Sonata No. 4 in C Minor, BWV 1017: II. Allegro
DR13 -6.10 дБ -24.37 дБ 3:05 15-Sonata No. 4 in C Minor, BWV 1017: III. Adagio
DR14 -1.98 дБ -21.25 дБ 4:36 16-Sonata No. 4 in C Minor, BWV 1017: IV. Allegro
DR12 -8.65 дБ -25.16 дБ 5:39 17-Sonata No. 5 in F Minor, BWV 1018: I. Largo
DR14 -3.60 дБ -21.21 дБ 4:11 18-Sonata No. 5 in F Minor, BWV 1018: II. Allegro
DR11 -7.98 дБ -23.16 дБ 3:06 19-Sonata No. 5 in F Minor, BWV 1018: III. Adagio
DR13 -6.34 дБ -22.00 дБ 2:26 20-Sonata No. 5 in F Minor, BWV 1018: IV. Vivace
DR15 -1.97 дБ -21.09 дБ 3:30 21-Sonata No. 6 in G Major, BWV 1019: I. Allegro
DR11 -10.12 дБ -27.01 дБ 1:36 22-Sonata No. 6 in G Major, BWV 1019: II. Largo
DR11 -10.74 дБ -24.83 дБ 4:04 23-Sonata No. 6 in G Major, BWV 1019: III. Allegro
DR14 -7.62 дБ -26.76 дБ 2:50 24-Sonata No. 6 in G Major, BWV 1019: IV. Adagio
DR14 -2.21 дБ -21.18 дБ 3:11 25-Sonata No. 6 in G Major, BWV 1019: V. Allegro
--------------------------------------------------------------------------------
Количество треков: 25
Реальные значения DR: DR13
Частота: 96000 Гц
Каналов: 2
Разрядность: 24
Битрейт: 2713 кбит/с
Кодек: FLAC
================================================================================
[teatrix.ru].t21151.torrent 
Торрент: Зарегистрирован [ 2016-03-20 00:52 ] · 0FF96DF0248F182A993CB62A242BBCEADEF0F768

Скачать .torrent

Скачать

19 KB

Статус: проверено
Скачан: 0 раз
Размер: 1.6 GB
terms.php



Быстрый ответ

Имя:

      
Для отправки сообщений необходимо включить JavaScript
Показать сообщения:    

Текущее время: 08-Дек 09:03

Часовой пояс: UTC + 3


Вы можете начинать темы
Вы можете отвечать на сообщения
Вы не можете редактировать свои сообщения
Вы не можете удалять свои сообщения
Вы не можете голосовать в опросах
Вы не можете прикреплять файлы к сообщениям
Вы можете скачивать файлы