Звуковое Шоссе - Нью-Йорк, (Эпизод 8) 2014 / Foo Fighters: Sonic Highways - New York (Episode 8) 2014 (Дэйв Грол/Dave Grohl) [05.12.2014, Документальный, музыкальный, HDTVRip]


Статистика раздачи [Обновить пиров]
Размер:  466 MB   |    Зарегистрирован:  8 месяцев 16 дней   |    Скачан:  0 раз

Полного источника не было: Никогда

 
   
 
 
 

[Цитировать]

Звуковое Шоссе - Нью-Йорк, (Эпизод 8) 2014 / Foo Fighters: Sonic Highways - New York (Episode 8) 2014
Дата/Год выпуска: 05.12.2014
Страна: США
Жанр: Документальный, музыкальный
Продолжительность: 00:59:33
Перевод: Любительский (многоголосый закадровый)
Доп. инфо о переводе: Abandoned Studio
Русские субтитры: нет
Оригинальная аудиодорожка: нет
Режиссер: Дэйв Грол/Dave Grohl
Телеканал: HBO
Описание: Дэйв изучает эволоюцию Нью-Йоркской сцены. Берет интервью у Пола Стенли, Джимми Айвина, Норы Гутри, Торнстон Мур, Чак Ди, ЛЛ Кул Джея, Майкла Ди, Рика Рубина и Барака Обамы. Группа записывается на студии "The Magic Shop"
Сэмпл: Сэмпл
качество: HDTVRip
формат: MP4
Видео: Кодек: H.264 (NTSC), Разрешение кадра: 624 x 350 (16:9), Битрейт: 902 kbps, 23.976 fps
Аудио: Кодек: AAC, Битрейт: 192 kbps, Частота дискретизации: 48000 kHz, Stereo

MediaInfo

Complete name : /Users/applesoranjes/Desktop/Record/Sonic Highways/Episode 8/New York, Episode 8.mp4
Format : MPEG-4
Codec ID : M4V
File size : 466 MiB
Duration : 59mn 32s
Overall bit rate mode : Variable
Overall bit rate : 1 094 Kbps
Encoded date : UTC 2015-05-10 15:43:38
Tagged date : UTC 2015-05-10 15:43:51
©TIM : 00:00:00:00
©TSC : 24000
©TSZ : 1001
Video
ID : 1
Format : AVC
Format/Info : Advanced Video Codec
Format profile : Main@L3.1
Format settings, CABAC : No
Format settings, ReFrames : 2 frames
Codec ID : avc1
Codec ID/Info : Advanced Video Coding
Duration : 59mn 32s
Source duration : 59mn 32s
Bit rate : 902 Kbps
Width : 624 pixels
Height : 350 pixels
Display aspect ratio : 16:9
Frame rate mode : Variable
Frame rate : 23.976 fps
Minimum frame rate : 23.976 fps
Maximum frame rate : 24.000 fps
Standard : NTSC
Color space : YUV
Chroma subsampling : 4:2:0
Bit depth : 8 bits
Scan type : Progressive
Bits/(Pixel*Frame) : 0.172
Stream size : 384 MiB (82%)
Source stream size : 384 MiB (82%)
Language : English
Encoded date : UTC 2015-05-10 15:43:38
Tagged date : UTC 2015-05-10 15:43:38
Color range : Limited
mdhd_Duration : 3572944
Audio
ID : 2
Format : AAC
Format/Info : Advanced Audio Codec
Format profile : HE-AAC / LC
Codec ID : 40
Duration : 59mn 32s
Source duration : 59mn 32s
Bit rate mode : Variable
Bit rate : 192 Kbps
Maximum bit rate : 297 Kbps
Channel(s) : 2 channels
Channel positions : Front: L R
Sampling rate : 96.0 KHz / 48.0 KHz
Compression mode : Lossy
Stream size : 80.7 MiB (17%)
Source stream size : 80.7 MiB (17%)
Language : English
Encoded date : UTC 2015-05-10 15:43:38
Tagged date : UTC 2015-05-10 15:43:38
mdhd_Duration : 3572992

Скриншоты

[teatrix.ru].t21152.torrent 
Торрент: Зарегистрирован [ 2016-03-20 00:51 ] · 48BD3FE0495E23EA7A57675480D25C602498E337

Скачать .torrent

Скачать

19 KB

Статус: проверено
Скачан: 0 раз
Размер: 466 MB
terms.php



Быстрый ответ

Имя:

      
Для отправки сообщений необходимо включить JavaScript
Показать сообщения:    

Текущее время: 05-Дек 23:35

Часовой пояс: UTC + 3


Вы можете начинать темы
Вы можете отвечать на сообщения
Вы не можете редактировать свои сообщения
Вы не можете удалять свои сообщения
Вы не можете голосовать в опросах
Вы не можете прикреплять файлы к сообщениям
Вы можете скачивать файлы