Бешеный пёс: тайный мир Муаммара Каддафи / Mad Dog: Inside the Secret World of Muammar Gaddafi (Кристофер Олгьяти / Christopher Olgiati) [2014, документальный, SATRip]


Статистика раздачи [Обновить пиров]
Размер:  1.09 GB   |    Зарегистрирован:  8 месяцев 20 дней   |    Скачан:  0 раз

Полного источника не было: Никогда

 
   
 
 
 

[Цитировать]

Бешеный пёс: тайный мир Муаммара Каддафи / Mad Dog: Inside the Secret World of Muammar Gaddafi
Дата/Год выпуска: 2014
Страна: Великобритания
Жанр: документальный
Продолжительность: 01:16:23
Перевод: Профессиональный (двухголосый закадровый)
Русские субтитры: нет
Оригинальная аудиодорожка: нет
Режиссер: Кристофер Олгьяти / Christopher Olgiati
Телеканал: 24 Док
Описание: История сорокалетнего правления бывшего лидера Ливии Муаммара Каддафи. Создатели фильма рассказали, что он убивал своих политических врагов и держал их головы в морозильнике, время от времени любуясь на них. Там же он хранил тела и других убитых им соперников. Во время выступлений перед студентами диктатор выбирал себе среди них секс-рабынь: уходя, он просто кивал головой на понравившуюся ему девушку. В кампусе университета в Триполи построили специальную комнату для утех диктатора, оснащенную гинекологическим оборудованием, в которой осматривали женщин и делали им аборты. Там же были спальня в стиле 70-х и джакузи. Надоевших ему жертв он отправлял в сумасшедший дом... Британский режиссер Кристофер Олгьяти показал нам диктатора, как очень обаятельного, колоссально богатого, но при этом абсолютно безжалостного человека, который руководствовался исключительно жаждой власти...
Доп. информация: Собственный рип.
Сэмпл: http://multi-up.com/1048184
качество: SATRip
формат: AVI
Видео: XviD 73, 720x400 (16:9), 25.000 fps, 1836 kbps avg
Аудио: Russian AC3 Dolby Digital, 48 kHz, 2/0 (L,R) ch, 192.00 kbps avg

MediaInfo

General
Complete name : F:\Inside the Secret World of Muammar Gaddafi (2014)\Mad Dog Inside the Secret World of Muammar Gaddafi (2014).SATRip.avi
Format : AVI
Format/Info : Audio Video Interleave
File size : 1.09 GiB
Duration : 1h 16mn
Overall bit rate : 2 038 Kbps
Writing application : VirtualDubModRus 1.5.10.2 (build 2542/release)
Writing library : VirtualDubMod build 2542/release
Video
ID : 0
Format : MPEG-4 Visual
Format profile : Advanced Simple@L5
Format settings, BVOP : 1
Format settings, QPel : No
Format settings, GMC : No warppoints
Format settings, Matrix : Default (MPEG)
Codec ID : XVID
Codec ID/Hint : XviD
Duration : 1h 16mn
Bit rate : 1 836 Kbps
Width : 720 pixels
Height : 400 pixels
Display aspect ratio : 16:9
Frame rate : 25.000 fps
Color space : YUV
Chroma subsampling : 4:2:0
Bit depth : 8 bits
Scan type : Progressive
Compression mode : Lossy
Bits/(Pixel*Frame) : 0.255
Stream size : 1 003 MiB (90%)
Writing library : XviD 73
Audio
ID : 1
Format : AC-3
Format/Info : Audio Coding 3
Mode extension : CM (complete main)
Format settings, Endianness : Big
Codec ID : 2000
Duration : 1h 16mn
Bit rate mode : Constant
Bit rate : 192 Kbps
Channel(s) : 2 channels
Channel positions : Front: L R
Sampling rate : 48.0 KHz
Bit depth : 16 bits
Compression mode : Lossy
Stream size : 105 MiB (9%)
Alignment : Split accross interleaves
Interleave, duration : 40 ms (1.00 video frame)
Interleave, preload duratio : 500 ms

Скриншоты

[teatrix.ru].t21155.torrent 
Торрент: Зарегистрирован [ 2016-03-20 00:51 ] · 32ED8061638520DD15B8D8AB15917775C90CBFF0

Скачать .torrent

Скачать

11 KB

Статус: проверено
Скачан: 0 раз
Размер: 1.09 GB
terms.php



Быстрый ответ

Имя:

      
Для отправки сообщений необходимо включить JavaScript
Показать сообщения:    

Текущее время: 09-Дек 04:58

Часовой пояс: UTC + 3


Вы можете начинать темы
Вы можете отвечать на сообщения
Вы не можете редактировать свои сообщения
Вы не можете удалять свои сообщения
Вы не можете голосовать в опросах
Вы не можете прикреплять файлы к сообщениям
Вы можете скачивать файлы