(Classical) [LP] [24/48] Dietrich Fiscer-Dieskau - Baritone - Из Сокровищницы Мирового Исполнительского Искусства (J. S. Bach) - 1980, FLAC (tracks+.cue)


Статистика раздачи [Обновить пиров]
Размер:  593 MB   |    Зарегистрирован:  8 месяцев 16 дней   |    Скачан:  0 раз

Полного источника не было: Никогда

 
   
 
 
 

[Цитировать]

Dietrich Fiscer-Dieskau - Baritone - Из Сокровищницы Мирового Исполнительского Искусства
Жанр: Classical
Носитель: LP
Год выпуска: 1980
Лейбл: Melodya (MOZG)
Страна-производитель: USSR
Аудио кодек: FLAC
Тип рипа: tracks+.cue
Формат записи: 32/192
Формат раздачи: 24/48
Продолжительность: 57.21 min
Треклист:
J. S. Bach
Side One:
Cantata, BWV 56 "Ich will den Kreuzstab gerne tragen"
01. Aria 'Ich will den Kreuzstab gerne tragen'
02. Recitativo 'Mein Wandel auf der Welt ist einer'
03. Aria 'Endlich, endlich wird mein Joch'
04. Recitativo 'ich stehe fertig und bereit
05. Choral 'Komm, o Tod, du Schlafes Bruden'
Cantata,BWV 82 "Ich habe genug"
06. Aria 'Ich habe genug'
Side Two:
07. Recitativo 'Ich habe genug! Mein Trost ist nur allein, dass Jesus mein'
08. Aria 'Schlummert ein, ihr matten Augen'
09. Recitativo 'Mein Gott! wann kommt das schone Nun!'
10. Aria 'Ich freue mich auf meinen Tod'
Cantata,BWV 158 "Der Friede sei mit dir"
11. Recitativo 'Der Friede sei mit dir, du angstliches Gewissen!'
12. Aria mit Choral 'Welt, ade! ich bin dein mude'
13. Recitativo 'Nun Herr, regiere meinen Sinn' Arioso 'Da bleib' ich, da hab' ich Vergnugen zu wohnen'
14. Choral 'Hier ist das rechte Osterlamm'
In German
Manfred Clement, oboe (BWV 56, 82)
Otto Buchner, violin (BWV 158)
Continuo.
Fritz Kisskalt, cello
Herbert Duft, double-bass
Detlev Kuhl, bassoon (BWV 56, 82)
Karl Kalbinger, bassoon (BWV 158)
Karl Richter, harpsichord (BWV 158)
Hedwig Bilgram, organ (BWV 56, 82)
Elmar Schlotter, organ (BWV 158)
Источник оцифровки: автором раздачи
Код класса состояния винила: NM
Устройство воспроизведения: Электроника ЭП 017С
Головка звукоснимателя: Audio-Technica AT95
Предварительный усилитель: Бриг-001
АЦП: VIA HD audio device
Программа-оцифровщик: Izotope RX 4 Advanced
Обработка: Izotope RX 4 Advanced

Спектр+АЧХ+Уровень записи

DR=14

foobar2000 1.1.10 / Dynamic Range Meter 1.1.1
log date: 2015-05-12 15:52:35
--------------------------------------------------------------------------------
Analyzed: Dietrich Fiscer-Dieskau / The World's Leading Interpreters Of Music - Baritone
--------------------------------------------------------------------------------
DR Peak RMS Duration Track
--------------------------------------------------------------------------------
DR14 -0.94 dB -21.74 dB 8:35 ?-Aria "Ich will den Kreuzstab gerne tragen"
DR13 -2.58 dB -22.56 dB 2:10 ?-Recitativo "Mein Wandel auf der Welt ist einer"
DR18 -1.17 dB -23.49 dB 6:38 ?-Aria "Endlich, endlich wird mein Joch"
DR13 -4.71 dB -26.39 dB 1:59 ?-Recitativo "ich stehe fertig und bereit
DR12 -2.93 dB -22.13 dB 2:10 ?-Choral "Komm, o Tod, du Schlafes Bruden"
DR14 -2.61 dB -22.31 dB 8:05 ?-Aria "Ich habe genug"
DR14 -3.02 dB -23.59 dB 1:43 ?-Recitativo "Ich habe genug! Mein Trost ist nur allein, dass Jesus mein"
DR14 -1.08 dB -19.84 dB 9:36 ?-Aria "Schlummert ein, ihr matten Augen"
DR13 -8.78 dB -26.53 dB 1:10 ?-Recitativo "Mein Gott! wann kommt das schone Nun!"
DR14 -0.58 dB -18.40 dB 3:43 ?-Aria "Ich freue mich auf meinen Tod"
DR14 -3.81 dB -22.07 dB 2:11 ?-Recitativo "Der Friede sei mit dir, du angstliches Gewissen!"
DR13 -1.59 dB -19.61 dB 5:54 ?-Aria mit Choral "Welt, ade! ich bin dein mude"
DR14 -6.54 dB -24.97 dB 2:04 ?-Recitativo "Nun Herr, regiere meinen Sinn" Arioso "Da bleib' ich, da hab' ich Vergnugen zu wohnen"
DR11 -1.63 dB -19.00 dB 1:23 ?-Choral "Hier ist das rechte Osterlamm"
--------------------------------------------------------------------------------
Number of tracks: 14
Official DR value: DR14
Samplerate: 48000 Hz
Channels: 2
Bits per sample: 24
Bitrate: 1384 kbps
Codec: FLAC
================================================================================

Back, Inner & Disc

[teatrix.ru].t21156.torrent 
Торрент: Зарегистрирован [ 2016-03-20 00:51 ] · 4D1595BA48A18CCF6A265189F44EE606CB4D7663

Скачать .torrent

Скачать

14 KB

Статус: проверено
Скачан: 0 раз
Размер: 593 MB
terms.php



Быстрый ответ

Имя:

      
Для отправки сообщений необходимо включить JavaScript
Показать сообщения:    

Текущее время: 05-Дек 23:37

Часовой пояс: UTC + 3


Вы можете начинать темы
Вы можете отвечать на сообщения
Вы не можете редактировать свои сообщения
Вы не можете удалять свои сообщения
Вы не можете голосовать в опросах
Вы не можете прикреплять файлы к сообщениям
Вы можете скачивать файлы