Арнольд Шварценеггер: За бронёй мышц / Arnold: The Man Behind the Muscule (Джефф Форрестер) [1994, Документальный, VHSRip]


Статистика раздачи [Обновить пиров]
Размер:  1022 MB   |    Зарегистрирован:  8 месяцев 16 дней   |    Скачан:  0 раз

Полного источника не было: Никогда

 
   
 
 
 

[Цитировать]

Арнольд Шварценеггер: За бронёй мышц / Arnold: The Man Behind the Muscule
Дата/Год выпуска: 1994
Страна: США
Жанр: Документальный
Продолжительность: 00:44:36
Перевод: Профессиональный одноголосый закадровый
Доп. инфо о переводе: Корпорация "Арена"
Русские субтитры: нет
Оригинальная аудиодорожка: нет
Режиссер: Джефф Форрестер
Описание: "Живая легенда, кумир миллионов людей во всем мире. Самый кассовый актер всех времен и народов. Мистер Вселенная, Мистер Олимпия, Мистер Мира. Безумно богатый бизнесмен, любящий муж и отец. Этот фильм для тех, кто хочет лучше узнать Арнольда Шварценеггера- самого крутого парня Голливуда."
Доп. информация: Собственный рип из раритетной лицензионной видеокассеты корпорации "Арена".
В отличии от другой раздачи, тут профессиональный одноголосый перевод который был на лицензионной видеокассете, плюс правильное соотношение сторон!
Оцифровку произвел платой AverMedia Dual Hybrid Analog/DVBT/DVBS, с видеомагнитофона Panasonic, работа со звуком (очистка и удаления шумов) в программе Adobe Audition CS5.5
Сэмпл
качество: VHSRip
формат: MKV
Видео: AVC, 720x576, 4:3, 2947 kbps, 25 fps
Аудио: MP3, 192 kbps, 44,1 kHz, 1ch

MediaInfo

Общее
Уникальный идентификатор : 209749308055828273197426139210304344293 (0x9DCC3F505BC1BBBB89B5AF6E6BA250E5)
Формат : Matroska
Версия формата : Version 4 / Version 2
Размер файла : 1022 Мбайт
Продолжительность : 44 м.
Общий поток : 3202 Кбит/сек
Дата кодирования : UTC 2015-05-13 16:30:08
Программа кодирования : mkvmerge v7.9.0 ('Birds') 64bit
Библиотека кодирования : libebml v1.3.1 + libmatroska v1.4.2
DURATION : 00:44:36.010000000
NUMBER_OF_FRAMES : 102441
NUMBER_OF_BYTES : 64128066
_STATISTICS_WRITING_APP : mkvmerge v7.9.0 ('Birds') 64bit
_STATISTICS_WRITING_DATE_UTC : 2015-05-13 16:30:08
_STATISTICS_TAGS : BPS DURATION NUMBER_OF_FRAMES NUMBER_OF_BYTES
Видео
Идентификатор : 1
Формат : AVC
Формат/Информация : Advanced Video Codec
Профиль формата : Main@L3.0
Параметр CABAC формата : Да
Параметр ReFrames формата : 4 кадра
Идентификатор кодека : V_MPEG4/ISO/AVC
Продолжительность : 44 м.
Битрейт : 2947 Кбит/сек
Ширина : 720 пикселей
Высота : 576 пикселей
Соотношение сторон : 4:3
Режим частоты кадров : Постоянный
Частота кадров : 25,000 кадров/сек
Стандарт вещания : PAL
Цветовое пространство : YUV
Субдискретизация насыщенности : 4:2:0
Битовая глубина : 8 бит
Тип развёртки : Прогрессивная
Бит/(Пиксели*Кадры) : 0.284
Размер потока : 940 Мбайт (92%)
Язык : English
Default : Да
Forced : Нет
Аудио
Идентификатор : 2
Формат : MPEG Audio
Версия формата : Version 1
Профиль формата : Layer 3
Идентификатор кодека : A_MPEG/L3
Идентификатор кодека/Подсказка : MP3
Продолжительность : 44 м.
Вид битрейта : Постоянный
Битрейт : 192 Кбит/сек
Каналы : 1 канал
Частота : 44,1 КГц
Метод сжатия : С потерями
Размер потока : 61,2 Мбайт (6%)
Язык : Russian
Default : Да
Forced : Нет

Скриншоты

[teatrix.ru].t21158.torrent 
Торрент: Зарегистрирован [ 2016-03-20 00:51 ] · 322C7194141FDD523E1716D2D7AF78274939A630

Скачать .torrent

Скачать

21 KB

Статус: проверено
Скачан: 0 раз
Размер: 1022 MB
terms.php



Показать сообщения:    

Текущее время: 05-Дек 17:34

Часовой пояс: UTC + 3


Вы не можете начинать темы
Вы не можете отвечать на сообщения
Вы не можете редактировать свои сообщения
Вы не можете удалять свои сообщения
Вы не можете голосовать в опросах
Вы не можете прикреплять файлы к сообщениям
Вы можете скачивать файлы