(Classical, Violin, Piano) Eiji Arai & Toru Kimura - Violin Recital {Schumann, Franck - Sonata, Szymanowski - Mythes, Prelude} - 1999, FLAC (tracks+.cue), lossless


 

[Цитировать]

Eiji Arai & Toru Kimura - Violin Recital
Жанр: Classical, Violin, Piano
Страна-производитель диска: Япония
Год издания диска: 1999
Издатель (лейбл): Live Notes/Nami Records
Номер по каталогу: WWCC-7370
Аудиокодек: FLAC
Тип рипа: tracks+.cue
Битрейт аудио: lossless
Продолжительность: 69:40
Источник (релизер): what.cd
Наличие сканов в содержимом раздачи: да
Треклист:
Robert Schumann (1810-1856)
Violin Sonata No.1 in A minor, Op.105
01. 1. Allegro appassionato (7:31)
02. 2. Allegretto (4:18)
03. 3. Allegro con brio (4:57)
Karol Szymanowski (1882-1937)
Mythes, Op.30
04. 1. La Fontaine d'Arethuse (6:08)
05. 2. Narcisse (8:18)
06. 3. Dryades et Pan (7:55)
Cesar Franck (1822-1890)
Violin Sonata in A major
07. 1. Allegro ben moderato (6:13)
08. 2. Allegro (7:52)
09. 3. Recitativo - Fantasia (7:55)
10. 4. Allegretto poco mosso (6:24)
Karol Szymanowski (transcripted by Grazyna Bacewicz)
11. Prelude in B minor, Op.1-1 (2:09)
Исполнители:
Eiji Arai - violin
Toru Kimura - piano
Recorded at Tsuda Hall, Tokyo on September 29, 1999.

Лог создания рипа

Exact Audio Copy V1.0 beta 3 from 29. August 2011
EAC extraction logfile from 21. May 2014, 13:13
Eiji Arai, Toru Kimura / Violin Recital
Used drive : TSSTcorpDVD+-RW TS-U633F Adapter: 1 ID: 0
Read mode : Secure
Utilize accurate stream : Yes
Defeat audio cache : Yes
Make use of C2 pointers : No
Read offset correction : 6
Overread into Lead-In and Lead-Out : No
Fill up missing offset samples with silence : Yes
Delete leading and trailing silent blocks : No
Null samples used in CRC calculations : Yes
Used interface : Installed external ASPI interface
Gap handling : Appended to previous track
Used output format : User Defined Encoder
Selected bitrate : 1024 kBit/s
Quality : High
Add ID3 tag : No
Command line compressor : C:\Program Files\Exact Audio Copy\Flac\flac.exe
Additional command line options : -8 -V -T "ARTIST=%artist%" -T "TITLE=%title%" -T "ALBUM=%albumtitle%" -T "DATE=%year%" -T "TRACKNUMBER=%tracknr%" -T "GENRE=%genre%" -T "PERFORMER=%albuminterpret%" -T "COMPOSER=%composer%" %haslyrics%--tag-from-file=LYRICS="%lyricsfile%"%haslyrics% -T "ALBUMARTIST=%albumartist%" -T "DISCNUMBER=%cdnumber%" -T "TOTALDISCS=%totalcds%" -T "TOTALTRACKS=%numtracks%" -T "COMMENT=%comment%" %source% -o %dest%
TOC of the extracted CD
Track | Start | Length | Start sector | End sector
---------------------------------------------------------
1 | 0:00.00 | 7:31.10 | 0 | 33834
2 | 7:31.10 | 4:18.12 | 33835 | 53196
3 | 11:49.22 | 4:56.50 | 53197 | 75446
4 | 16:45.72 | 6:07.45 | 75447 | 103016
5 | 22:53.42 | 8:18.15 | 103017 | 140381
6 | 31:11.57 | 7:55.18 | 140382 | 176024
7 | 39:07.00 | 6:12.52 | 176025 | 203976
8 | 45:19.52 | 7:52.08 | 203977 | 239384
9 | 53:11.60 | 7:54.55 | 239385 | 274989
10 | 61:06.40 | 6:24.25 | 274990 | 303814
11 | 67:30.65 | 2:09.10 | 303815 | 313499
Track 1
Filename H:\flac\Eiji Arai\01 - Violin Sonata No.1 in A minor, Op.105 - 1. Allegro appassionato.wav
Pre-gap length 0:00:02.00
Peak level 95.1 %
Extraction speed 3.3 X
Track quality 100.0 %
Test CRC 6C397CA0
Copy CRC 6C397CA0
Accurately ripped (confidence 1) [4FBB77EF] (AR v1)
Copy OK
Track 2
Filename H:\flac\Eiji Arai\02 - Violin Sonata No.1 in A minor, Op.105 - 2. Allegretto.wav
Pre-gap length 0:00:03.13
Peak level 65.5 %
Extraction speed 3.5 X
Track quality 100.0 %
Test CRC A401D76B
Copy CRC A401D76B
Accurately ripped (confidence 1) [334849E9] (AR v1)
Copy OK
Track 3
Filename H:\flac\Eiji Arai\03 - Violin Sonata No.1 in A minor, Op.105 - 3. Allegro con brio.wav
Pre-gap length 0:00:01.29
Peak level 82.6 %
Extraction speed 3.9 X
Track quality 100.0 %
Test CRC 70EF2EC3
Copy CRC 70EF2EC3
Accurately ripped (confidence 1) [5A0FF9E0] (AR v1)
Copy OK
Track 4
Filename H:\flac\Eiji Arai\04 - Mythes, Op.30 - 1. La Fontaine d'Arethuse.wav
Pre-gap length 0:00:06.96
Peak level 70.2 %
Extraction speed 4.3 X
Track quality 100.0 %
Test CRC 871ABE60
Copy CRC 871ABE60
Accurately ripped (confidence 1) [2AD6F401] (AR v1)
Copy OK
Track 5
Filename H:\flac\Eiji Arai\05 - Mythes, Op.30 - 2. Narcisse.wav
Pre-gap length 0:00:01.56
Peak level 85.0 %
Extraction speed 4.8 X
Track quality 100.0 %
Test CRC 2B39D692
Copy CRC 2B39D692
Accurately ripped (confidence 1) [6576C816] (AR v1)
Copy OK
Track 6
Filename H:\flac\Eiji Arai\06 - Mythes, Op.30 - 3. Dryades et Pan.wav
Pre-gap length 0:00:01.76
Peak level 67.4 %
Extraction speed 5.2 X
Track quality 100.0 %
Test CRC E962706A
Copy CRC E962706A
Accurately ripped (confidence 1) [6FB68A26] (AR v1)
Copy OK
Track 7
Filename H:\flac\Eiji Arai\07 - Violin Sonata in A major - 1. Allegro ben moderato.wav
Pre-gap length 0:00:10.00
Peak level 69.2 %
Extraction speed 5.4 X
Track quality 100.0 %
Test CRC 1AE8B0E4
Copy CRC 1AE8B0E4
Accurately ripped (confidence 1) [EB0779CB] (AR v1)
Copy OK
Track 8
Filename H:\flac\Eiji Arai\08 - Violin Sonata in A major - 2. Allegro.wav
Peak level 90.1 %
Extraction speed 4.9 X
Track quality 99.9 %
Test CRC 4B1F082D
Copy CRC 4B1F082D
Accurately ripped (confidence 1) [868A4C23] (AR v1)
Copy OK
Track 9
Filename H:\flac\Eiji Arai\09 - Violin Sonata in A major - 3. Recitativo - Fantasia.wav
Pre-gap length 0:00:04.80
Peak level 50.8 %
Extraction speed 5.2 X
Track quality 99.9 %
Test CRC 4E8C7878
Copy CRC 4E8C7878
Accurately ripped (confidence 1) [766EEB2B] (AR v1)
Copy OK
Track 10
Filename H:\flac\Eiji Arai\10 - Violin Sonata in A major - 4. Allegretto poco mosso.wav
Peak level 96.0 %
Extraction speed 6.0 X
Track quality 100.0 %
Test CRC EC659A7A
Copy CRC EC659A7A
Accurately ripped (confidence 1) [8D224512] (AR v1)
Copy OK
Track 11
Filename H:\flac\Eiji Arai\11 - Prelude in B minor, Op.1-1.wav
Pre-gap length 0:00:01.33
Peak level 43.7 %
Extraction speed 3.7 X
Track quality 99.9 %
Test CRC 6EC73714
Copy CRC 6EC73714
Accurately ripped (confidence 1) [6C14D9D0] (AR v1)
Copy OK
All tracks accurately ripped
No errors occurred
End of status report
==== Log checksum BE3E3EA47FCD98216731E35C9A3911AF7961E59B69E1F0B8FB58042B3AE59BFE ====

Содержание индексной карты (.CUE)

REM GENRE Classical
REM DATE 1999
REM DISCID 9210540B
REM COMMENT "ExactAudioCopy v1.0b3"
PERFORMER "Eiji Arai & Toru Kimura"
TITLE "Violin Recital"
FILE "01 - Schumann- Violin Sonata No.1 in A minor, Op.105- 1. Allegro appassionato.wav" WAVE
TRACK 01 AUDIO
TITLE "Schumann: Violin Sonata No.1 in A minor, Op.105: 1. Allegro appassionato"
PERFORMER "Eiji Arai & Toru Kimura"
INDEX 01 00:00:00
TRACK 02 AUDIO
TITLE "Schumann: Violin Sonata No.1 in A minor, Op.105: 2. Allegretto"
PERFORMER "Eiji Arai & Toru Kimura"
INDEX 00 07:28:00
FILE "02 - Schumann- Violin Sonata No.1 in A minor, Op.105- 2. Allegretto.wav" WAVE
INDEX 01 00:00:00
TRACK 03 AUDIO
TITLE "Schumann: Violin Sonata No.1 in A minor, Op.105: 3. Allegro con brio"
PERFORMER "Eiji Arai & Toru Kimura"
INDEX 00 04:16:65
FILE "03 - Schumann- Violin Sonata No.1 in A minor, Op.105- 3. Allegro con brio.wav" WAVE
INDEX 01 00:00:00
TRACK 04 AUDIO
TITLE "Szymanowski: Mythes, Op.30: 1. La Fontaine d'Arethuse"
PERFORMER "Eiji Arai & Toru Kimura"
INDEX 00 04:49:53
FILE "04 - Szymanowski- Mythes, Op.30- 1. La Fontaine d'Arethuse.wav" WAVE
INDEX 01 00:00:00
TRACK 05 AUDIO
TITLE "Szymanowski: Mythes, Op.30: 2. Narcisse"
PERFORMER "Eiji Arai & Toru Kimura"
INDEX 00 06:06:03
FILE "05 - Szymanowski- Mythes, Op.30- 2. Narcisse.wav" WAVE
INDEX 01 00:00:00
TRACK 06 AUDIO
TITLE "Szymanowski: Mythes, Op.30: 3. Dryades et Pan"
PERFORMER "Eiji Arai & Toru Kimura"
INDEX 00 08:16:33
FILE "06 - Szymanowski- Mythes, Op.30- 3. Dryades et Pan.wav" WAVE
INDEX 01 00:00:00
TRACK 07 AUDIO
TITLE "Franck: Violin Sonata in A major: 1. Allegro ben moderato"
PERFORMER "Eiji Arai & Toru Kimura"
INDEX 00 07:45:18
FILE "07 - Franck- Violin Sonata in A major- 1. Allegro ben moderato.wav" WAVE
INDEX 01 00:00:00
FILE "08 - Franck- Violin Sonata in A major- 2. Allegro.wav" WAVE
TRACK 08 AUDIO
TITLE "Franck: Violin Sonata in A major: 2. Allegro"
PERFORMER "Eiji Arai & Toru Kimura"
INDEX 01 00:00:00
TRACK 09 AUDIO
TITLE "Franck: Violin Sonata in A major: 3. Recitativo - Fantasia"
PERFORMER "Eiji Arai & Toru Kimura"
INDEX 00 07:47:23
FILE "09 - Franck- Violin Sonata in A major- 3. Recitativo - Fantasia.wav" WAVE
INDEX 01 00:00:00
FILE "10 - Franck- Violin Sonata in A major- 4. Allegretto poco mosso.wav" WAVE
TRACK 10 AUDIO
TITLE "Franck: Violin Sonata in A major: 4. Allegretto poco mosso"
PERFORMER "Eiji Arai & Toru Kimura"
INDEX 01 00:00:00
TRACK 11 AUDIO
TITLE "Szymanowski (Bacewicz): Prelude in B minor, Op.1-1"
PERFORMER "Eiji Arai & Toru Kimura"
INDEX 00 06:23:00
FILE "11 - Szymanowski (Bacewicz)- Prelude in B minor, Op.1-1.wav" WAVE
INDEX 01 00:00:00



Показать сообщения:    

Текущее время: 09-Дек 22:27

Часовой пояс: UTC + 3


Вы не можете начинать темы
Вы не можете отвечать на сообщения
Вы не можете редактировать свои сообщения
Вы не можете удалять свои сообщения
Вы не можете голосовать в опросах
Вы не можете прикреплять файлы к сообщениям
Вы не можете скачивать файлы