(Classical) [LP] [24/48] Nikolai Gedda - Tenor - Из Сокровищницы Мирового Исполнительского Искусства - 1980, FLAC (tracks+.cue)


Статистика раздачи [Обновить пиров]
Размер:  512 MB   |    Зарегистрирован:  8 месяцев 18 дней   |    Скачан:  0 раз

Полного источника не было: Никогда

 
   
 
 
 

[Цитировать]

Nikolai Gedda - Tenor - Из Сокровищницы Мирового Исполнительского Искусства
Жанр: Classical
Носитель: LP
Год выпуска: 1980
Лейбл: Melodya (MOZG)
Страна-производитель: USSR
Аудио кодек: FLAC
Тип рипа: tracks+.cue
Формат записи: 32/192
Формат раздачи: 24/48
Продолжительность: 48.50 min
Треклист:
Side One:
F. M. Veracini
01. 'Mecco verrai' ('Rosalinda')
C. W. Gluck
02. Duet of Orfeo and Euridice ('Orfeo', Act 3)
W. A. Mozart
03. Tamino's Aria ('Zauberflote', Act 1)
G. Donizetti
04. Nemorino's Song ('L'elisir d'amore', Act 2)
G. Meyerbeer
05. Duet of Marguerite and Raoul ('Les Hugenots', Act 2)
G. Verdi
06. Duke's Song ('Rigoletto', Act 4)

исполнители:

Side Two:
E. Grieg
07. The Swan
08. I love Thee
M. Glinka
09. I Remember a Wondrous Moment
M. Mussorgsky
10. Where Art Thou, Little Star?
P. Tchaikovsky
11. Lensky's Aria ('Eugene Onegin', Act 2)
K. Sidorovich
12. Monotonously Rings the Bell

исполнители:

Источник оцифровки: автором раздачи
Код класса состояния винила: NM
Устройство воспроизведения: Электроника ЭП 017С
Головка звукоснимателя: Audio-Technica AT95
Предварительный усилитель: Бриг-001
АЦП: VIA HD audio device
Программа-оцифровщик: Izotope RX 4 Advanced
Обработка: Izotope RX 4 Advanced

Спектр+АЧХ+Уровень записи


DR=12

foobar2000 1.1.10 / Dynamic Range Meter 1.1.1
log date: 2015-05-13 18:33:50
--------------------------------------------------------------------------------
Analyzed: Nikolai Gedda / The World's Leading Interpreters Of Music - Tenor
--------------------------------------------------------------------------------
DR Peak RMS Duration Track
--------------------------------------------------------------------------------
DR12 -3.86 dB -21.85 dB 2:28 ?-"Mecco verrai" ("Rosalinda")
DR11 -4.29 dB -19.90 dB 4:05 ?-Duet of Orfeo and Euridice ("Orfeo", Act 3)
DR11 -3.71 dB -20.67 dB 3:57 ?-Tamino's Aria ("Zauberflote", Act 1)
DR10 -4.02 dB -19.89 dB 4:52 ?-Nemorino's Song ("L'elisir d'amore", Act 2)
DR13 -1.51 dB -20.79 dB 7:30 ?-Duet of Marguerite and Raoul ("Les Hugenots", Act 2)
DR12 -3.07 dB -20.39 dB 2:11 ?-Duke's Song ("Rigoletto", Act 4)
DR16 -2.24 dB -25.23 dB 2:46 ?-The Swan
DR12 -5.57 dB -24.44 dB 2:55 ?-I love Thee
DR11 -3.31 dB -20.88 dB 3:24 ?-I Remember a Wondrous Moment
DR12 -2.96 dB -21.90 dB 3:25 ?-Where Art Thou, Little Star?
DR12 -2.73 dB -20.34 dB 7:18 ?-Lensky's Aria ("Eugene Onegin", Act 2)
DR12 -4.42 dB -20.82 dB 4:00 ?-Monotonously Rings the Bell
--------------------------------------------------------------------------------
Number of tracks: 12
Official DR value: DR12
Samplerate: 48000 Hz
Channels: 2
Bits per sample: 24
Bitrate: 1358 kbps
Codec: FLAC
================================================================================

Back, Inner & Disc





[teatrix.ru].t21162.torrent 
Торрент: Зарегистрирован [ 2016-03-20 00:51 ] · 118AE41114B8E42B42497DC65C1DB548E6A8DD29

Скачать .torrent

Скачать

22 KB

Статус: проверено
Скачан: 0 раз
Размер: 512 MB
terms.php



Быстрый ответ

Имя:

      
Для отправки сообщений необходимо включить JavaScript
Показать сообщения:    

Текущее время: 07-Дек 21:22

Часовой пояс: UTC + 3


Вы можете начинать темы
Вы можете отвечать на сообщения
Вы не можете редактировать свои сообщения
Вы не можете удалять свои сообщения
Вы не можете голосовать в опросах
Вы не можете прикреплять файлы к сообщениям
Вы можете скачивать файлы