[TR24][OF] Alison Balsom & Quentin Thomas - Music for Trumpet and Organ (Sweelinck - Variations; J.S. Bach - Partita II; Purcell - King Arthur; Tomasi - Semaine Sainte a Cuzco; Messiaen - Vocalise-Etude; Eben - Windows) - 2002/2014 (Classical)


Статистика раздачи [Обновить пиров]
Размер:  507 MB   |    Зарегистрирован:  8 месяцев 16 дней   |    Скачан:  0 раз

Полного источника не было: Никогда

 
   
 
 
 

[Цитировать]

Alison Balsom & Quentin Thomas
Music for Trumpet and Organ
-Год издания/переиздания диска: 2002/2014
Жанр: Classical | Издатель (лейбл): Warner Classics
Продолжительность: 00:57:43 | Сканы: Sleeve, Digital Booklet- -Контейнер: FLAC (*.flac) | Тип рипа: tracks
Разрядность: 24bit /44.1kHz | Количество каналов: 2.0-Alison Balsom, trumpet
Quentin Thomas, organ
-ТреклистJan Pieterszoon Sweelinck (1562-1621)
Variations on 'Mein junges Leben hat ein End'
01.Variations on 'Mein junges Leben hat ein End' (6:15)
Johann Sebastian Bach (1685-1750)
Partita No.2 in D minor BWV 1004
02. I.Allemande (4:59)
Henry Purcell (1659-1695)
King Arthur Z628
03. Act 5: Trumpet Tune (0:50)
04. Act 5: Symphony (2:00)
05. Act 5: Song Tune 1. 'Round Thy Shores' (1:36)
06. Act 5: Warlike Consort (1:07)
Traditional
Shenandoah
07. Shenandoah (2:42)
George Thomas Thalben-Ball (1896-1987)
Elegy
08. Elegy (3:47)
Henri Fredien Tomasi (1901-1971)
Semaine Sainte a Cuzco
09. Semaine Sainte a Cuzco (6:09)
Olivier Messiaen (1908-1992)
Vocalise-Étude Op.151
10. Vocalise-Étude, pour voix élevées (4:47)
Petr Eben (1929-2007)
Ókna (Windows, after Marc Chagall)
11. I. Modré Okno (The Blue Window) (4:31)
12. II.Zelené Okno (The Green Window) (6:29)
13. III. Cervené Okno (The Red Window) (6:00)
14. IV. Zlaté Okno (The Gold Window) (6:32)

О релизе


Stunning debut
A highly acclaimed artist and one of music’s great ambassadors, Alison Balsom was named Best Young British Performer at the 2006 Classical BRITs and was honoured with the Classic FM Listener’s Award at the September 2006 Gramophone Awards. In 2007 the Echo Klassik Awards hailed her “Rising Artist of the Year and in 2009 she became the first Briton ever to be crowned “Female Artist of the Year” at the Classical BRITs.
Whilst represented by the Young Concert Artists Trust, Alison caught the ear of EMI Classics, with whom she records exclusively. Her internationally celebrated Bach Trumpet and Organ disc of 2005 was quickly followed by the Caprice album which won her further critical acclaim. Alison’s most recent recording which includes the gems of the trumpet repertoire, the Haydn and Hummel’s Trumpet Concertos was named among the 24 records of 2008 by the New York Times.
'The EMI Debut series has now been successful in drawing a number of exceptionally promising young artists to public attention, amongst them Thomas Adès and, more recently (and currently particularly newsworthy) the bass-baritone Jonathan Lemalu, hailed by some as the next Bryn Terfel and having just picked up a Gramophone award for best debut disc. (…) Alison Balsom is a player we are likely to hear considerably more from in the coming years and this debut disc will do much to galvanise her already growing reputation.' (MusicWeb International)
“She makes the trumpet sing with an irresistible exuberance and eloquence.” (Richard Morrison, The Times)

ОтчётыДинамический диапазон

foobar2000 1.2.2 / Dynamic Range Meter 1.1.1
log date: 2015-05-14 11:52:51
--------------------------------------------------------------------------------
Analyzed: Alison Balsom, Quentin Thomas / Music for Trumpet and Organ
--------------------------------------------------------------------------------
DR Peak RMS Duration Track
--------------------------------------------------------------------------------
DR13 -4.46 dB -22.89 dB 6:15 ?-Variations on 'Mein junges Leben hat ein End'
DR13 -7.21 dB -23.67 dB 4:59 ?-Partita No.2 in D minor BWV 1004 - I.Allemande
DR13 -5.83 dB -22.70 dB 0:50 ?-King Arthur Z628 - Act 5: Trumpet Tune
DR11 -9.02 dB -24.04 dB 2:00 ?-King Arthur Z628 - Act 5: Symphony
DR10 -18.21 dB -30.93 dB 1:36 ?-King Arthur Z628 - Act 5: Song Tune 1. 'Round Thy Shores'
DR12 -6.01 dB -23.29 dB 1:07 ?-King Arthur Z628 - Act 5: Warlike Consort
DR10 -6.65 dB -23.93 dB 2:42 ?-Shenandoah
DR11 -3.45 dB -20.72 dB 3:47 ?-Elegy
DR13 -0.40 dB -18.56 dB 6:09 ?-Semaine Sainte a Cuzco
DR13 -5.86 dB -23.80 dB 4:47 ?-Vocalise-Étude Op.151
DR13 -0.40 dB -17.78 dB 4:31 ?-Ókna (Windows, after Marc Chagall) - I. Modré Okno (The Blue Window)
DR17 -3.30 dB -27.73 dB 6:29 ?-Ókna (Windows, after Marc Chagall) - II.Zelené Okno (The Green Window)
DR13 -0.40 dB -18.21 dB 6:00 ?-Ókna (Windows, after Marc Chagall) - III. Cervené Okno (The Red Window)
DR13 -0.50 dB -18.42 dB 6:32 ?-Ókna (Windows, after Marc Chagall) - IV. Zlaté Okno (The Gold Window)
--------------------------------------------------------------------------------
Number of tracks: 14
Official DR value: DR12
Samplerate: 44100 Hz
Channels: 2
Bits per sample: 24
Bitrate: 1249 kbps
Codec: FLAC
================================================================================

Скриншот спектра частот

Доп. информация

При скачивании, если необходимо, переименуйте папку, в которой будет находиться альбомБольшая просьба к скачавшим поддерживать раздачу! Помогайте другим, ведь вам тоже может понадобиться помощь!Не забываем говорить "Спасибо"!Комментарии приветствуются!
Alison Balsom Hi-Res
[teatrix.ru].t21163.torrent 
Торрент: Зарегистрирован [ 2016-03-20 00:51 ] · C107D377BBA9EC614AE0D3E7B9AF3228846C1EE9

Скачать .torrent

Скачать

22 KB

Статус: проверено
Скачан: 0 раз
Размер: 507 MB
terms.php



Быстрый ответ

Имя:

      
Для отправки сообщений необходимо включить JavaScript
Показать сообщения:    

Текущее время: 05-Дек 07:30

Часовой пояс: UTC + 3


Вы можете начинать темы
Вы можете отвечать на сообщения
Вы не можете редактировать свои сообщения
Вы не можете удалять свои сообщения
Вы не можете голосовать в опросах
Вы не можете прикреплять файлы к сообщениям
Вы можете скачивать файлы