Жанна Прохоренко. Баллада о любви (Анатолий Ярошевский) [2015, Документальный, биография, искусство, SATRip]


Статистика раздачи [Обновить пиров]
Размер:  646 MB   |    Зарегистрирован:  8 месяцев 19 дней   |    Скачан:  0 раз

Полного источника не было: Никогда

 
   
 
 
 

[Цитировать]

Жанна Прохоренко. Баллада о любви
Дата/Год выпуска: 2015
Страна: Россия, ООО "Зима Продакшн"
Жанр: Документальный, биография, искусство
Продолжительность: 00:51:59
Перевод: Не требуется
Русские субтитры: нет
Режиссер: Анатолий Ярошевский
Описание: Жанну Прохоренко называли звездой советского кинематографа. Мировая слава в 18 лет, рукопожатие самой английской королевы. Фильм режиссёра Григория Чухрая "Баллада о солдате" в конце 1950-х принёс начинающей актрисе невероятную любовь зрителей и награды самых престижных кинофестивалей. Придёт время – и не экранная, а реальная, земная любовь обрушится на Жанну Прохоренко с бешеной силой, которая перевернёт всю её жизнь. Кто этот брутальный герой, с которым актриса пережила самые счастливые и самые горькие мгновенья своей судьбы? Какой была её жизнь после славы, и чем она пожертвовала ради любви?
Участники: Екатерина Васильева, Марианна Спивак, Александр Михайлов, Николай Бурляев, Сергей Никоненко, Лариса Лужина, Ольга Гобзева, Игорь Пушкарёв, Павел Чухрай, Юрий Ройзман, Пётр Солдатенков, Сергей Новожилов.
качество: SATRip
формат: AVI
Видео: 704x448 (1.57:1), 25 fps, XviD build 50 ~1599 kbps avg, 0.20 bit/pixel
Аудио: 48 kHz, MPEG Layer 3, 2 ch, ~128.00 kbps avg

MediaInfo

Complete name                            : C:\Users\Home\Desktop\временная\Жанна Прохоренко.Баллада о любви.2015.SATRip.avi
Format : AVI
Format/Info : Audio Video Interleave
File size : 646 MiB
Duration : 51mn 59s
Overall bit rate : 1 738 Kbps
Writing application : VirtualDubMod 1.5.10.3 | www.virtualdub-fr.org || (build 2550/release)
Writing library : VirtualDubMod build 2550/release
Video
ID : 0
Format : MPEG-4 Visual
Format profile : Advanced Simple@L5
Format settings, BVOP : 2
Format settings, QPel : No
Format settings, GMC : No warppoints
Format settings, Matrix : Default (MPEG)
Codec ID : XVID
Codec ID/Hint : XviD
Duration : 51mn 59s
Bit rate : 1 600 Kbps
Width : 704 pixels
Height : 448 pixels
Display aspect ratio : 16:10
Frame rate : 25.000 fps
Color space : YUV
Chroma subsampling : 4:2:0
Bit depth : 8 bits
Scan type : Progressive
Compression mode : Lossy
Bits/(Pixel*Frame) : 0.203
Stream size : 595 MiB (92%)
Writing library : XviD 1.2.1 (UTC 2008-12-04)
Audio
ID : 1
Format : MPEG Audio
Format version : Version 1
Format profile : Layer 3
Codec ID : 55
Codec ID/Hint : MP3
Duration : 51mn 59s
Bit rate mode : Constant
Bit rate : 128 Kbps
Channel count : 2 channels
Sampling rate : 48.0 KHz
Compression mode : Lossy
Stream size : 47.6 MiB (7%)
Alignment : Aligned on interleaves
Interleave, duration : 40 ms (1.00 video frame)
Interleave, preload duration : 504 ms
Writing library : LAME3.99r
Encoding settings : -m s -V 4 -q 2 -lowpass 17 -b 128

Скриншоты

[teatrix.ru].t21164.torrent 
Торрент: Зарегистрирован [ 2016-03-20 00:51 ] · 34E33200A4BD67B4BEB9B0569190A34174B84BC9

Скачать .torrent

Скачать

13 KB

Статус: проверено
Скачан: 0 раз
Размер: 646 MB
terms.php



Быстрый ответ

Имя:

      
Для отправки сообщений необходимо включить JavaScript
Показать сообщения:    

Текущее время: 08-Дек 01:19

Часовой пояс: UTC + 3


Вы можете начинать темы
Вы можете отвечать на сообщения
Вы не можете редактировать свои сообщения
Вы не можете удалять свои сообщения
Вы не можете голосовать в опросах
Вы не можете прикреплять файлы к сообщениям
Вы можете скачивать файлы