(Opera) Lortzing - Regina (Kozub, Klein, Stracke, Rungenhagen, Frei - Chor & Orchester des Berliner Rundfunks, Schartner) - 2005, APE (image+.cue) lossless


 

[Цитировать]

Albert Lortzing - Regina
Жанр: Opera
Страна-производитель диска: germany
Год издания диска: 2005
Издатель (лейбл): Cantus Classics
Номер по каталогу: 5.00825
Дата записи: 1951
Аудиокодек: APE
Тип рипа: image+.cue
Битрейт аудио: lossless
Продолжительность: 52'11+34'12
Источник: собственный рип
Наличие сканов в содержимом раздачи: да
Треклист:
CD1
1. Ouvertüre
2. Erster Akt - Wir wollen nicht!
3. Erster Akt - Nun seid vernünftig, Leute
4. Erster Akt - O teurer Freund
5. Erster Akt - Kommt herein!
6. Erster Akt - O schöner Augenblick
7. Erster Akt - Und wem verdanken wir dies Glück?
8. Erster Akt - O bester Herr
9. Erster Akt - Was sprach der alte Tor?
10. Erster Akt - Warum wird mir hienieden
11. Erster Akt - Erlaubet mir Euch nach dem Weg zu fragen
12. Erster Akt - Kilian, eines vergaßest du doch
13. Erster Akt - Verloren sind wir allzumal
14. Erster Akt - Bist du entschlossen?
15. Erster Akt - Wolfgang! Wolfgang!
CD2
1. Zweiter Akt - Nicht so bleiben kan dies Treiben
2. Zweiter Akt - Was führt dich in der Nacht
3. Zweiter Akt - Das ist das Haus
4. Zweiter Akt - Noch einmal seis versucht
5. Zweiter Akt - Was du begehrst
6. Zweiter Akt - Ists besser, wenn wir alle wachen
7. Zweiter Akt - Hinaus, hinaus in schnellster Frist
8. Zweiter Akt - He, Kilian, auf!
9. Zweiter Akt - Sobald die Nacht
10. Dritter Akt - Faßt nur Mut, gestrenger Herr
11. Dritter Akt - Von fern ertönet Siegesgeschrei
12. Dritter Akt - Halt! Bleibt hier mit Regina
13. Dritter Akt - Das Kilian uns entwischt
14. Dritter Akt - Wir sind verraten
15. Dritter Akt - Es nahet die Entscheidung Augenblick
16. Dritter Akt - Verloren sind wir
17. Dritter Akt - Regina! Richard!
18. Dritter Akt - Frisch auf, frisch auf und einig seid
Исполнители:
Albert Lortzing - Regina
Opera in 3 Acts
Libretto: Adolphe Du Arronge
Ernst Kozub - Kilian
Irmgard Klein - Regina
Karl-Heinz Stracke - Richard
Heinz Friedrich - Stephan
Herbert Rungenhagen - Wolfgang
Gerhard Frei - Simon
Ilse Schartner - Barbara
Chor & Orchester des Berliner Rundfunks
Dirigent Walter Schartner

Лог создания рипа

CD1

Exact Audio Copy V1.0 beta 3 from 29. August 2011
EAC extraction logfile from 2. May 2015, 16:24
Lortzing / Regina, Schartner CD1
Used drive : TSSTcorpCDDVDW SE-208AB Adapter: 1 ID: 0
Read mode : Secure
Utilize accurate stream : Yes
Defeat audio cache : Yes
Make use of C2 pointers : No
Read offset correction : 6
Overread into Lead-In and Lead-Out : No
Fill up missing offset samples with silence : Yes
Delete leading and trailing silent blocks : No
Null samples used in CRC calculations : Yes
Used interface : Native Win32 interface for Win NT & 2000
Used output format : Monkey's Audio Lossless Encoder
Selected bitrate : High Lossless Compression
Quality : High
Add ID3 tag : Yes
Command line compressor : C:\Program Files (x86)\Exact Audio Copy\MAC\MAC.exe
TOC of the extracted CD
Track | Start | Length | Start sector | End sector
---------------------------------------------------------
1 | 0:00.00 | 5:44.36 | 0 | 25835
2 | 5:44.36 | 7:37.11 | 25836 | 60121
3 | 13:21.47 | 0:38.14 | 60122 | 62985
4 | 13:59.61 | 4:52.67 | 62986 | 84952
5 | 18:52.53 | 0:09.12 | 84953 | 85639
6 | 19:01.65 | 2:51.26 | 85640 | 98490
7 | 21:53.16 | 3:35.67 | 98491 | 114682
8 | 25:29.08 | 3:56.66 | 114683 | 132448
9 | 29:25.74 | 1:09.17 | 132449 | 137640
10 | 30:35.16 | 5:36.14 | 137641 | 162854
11 | 36:11.30 | 2:16.58 | 162855 | 173112
12 | 38:28.13 | 5:16.59 | 173113 | 196871
13 | 43:44.72 | 4:50.67 | 196872 | 218688
14 | 48:35.64 | 2:56.72 | 218689 | 231960
15 | 51:32.61 | 0:37.69 | 231961 | 234804
Range status and errors
Selected range
Filename D:\EAC\Lortzing - Regina, Schartner CD1.wav
Peak level 72.1 %
Extraction speed 4.7 X
Range quality 99.9 %
Test CRC 5AEC9BBE
Copy CRC 5AEC9BBE
Copy OK
No errors occurred
AccurateRip summary
Track 1 accurately ripped (confidence 1) [2AB2D7C5] (AR v1)
Track 2 accurately ripped (confidence 1) [B037BBCD] (AR v1)
Track 3 accurately ripped (confidence 1) [C69AFBFC] (AR v1)
Track 4 accurately ripped (confidence 1) [051B2C6D] (AR v1)
Track 5 accurately ripped (confidence 1) [B0D2840F] (AR v1)
Track 6 accurately ripped (confidence 1) [85AD418C] (AR v1)
Track 7 accurately ripped (confidence 1) [0E1EDF66] (AR v1)
Track 8 accurately ripped (confidence 1) [F1A2D887] (AR v1)
Track 9 accurately ripped (confidence 1) [313DAD8A] (AR v1)
Track 10 accurately ripped (confidence 1) [1903D0C2] (AR v1)
Track 11 accurately ripped (confidence 1) [00CF1A53] (AR v1)
Track 12 accurately ripped (confidence 1) [4933A903] (AR v1)
Track 13 accurately ripped (confidence 1) [57410FE2] (AR v1)
Track 14 accurately ripped (confidence 1) [D3B5AAC1] (AR v1)
Track 15 accurately ripped (confidence 1) [EFA26691] (AR v1)
All tracks accurately ripped
End of status report
---- CUETools DB Plugin V2.1.3
[CTDB TOCID: 6Cw.NXpNqrL1ZsTqwZaAmbuRxRI-] disk not present in database, Submit result: 6Cw.NXpNqrL1ZsTqwZaAmbuRxRI- has been uploaded
==== Log checksum E8CDECFCD00F548E049FF55670634719DB39D42AA64AEC89E3C73B0A924A5904 ====

CD2

Exact Audio Copy V1.0 beta 3 from 29. August 2011
EAC extraction logfile from 2. May 2015, 16:25
Lortzing / Regina, Schartner CD2
Used drive : TS8XDVDSTRANSCEND Adapter: 1 ID: 1
Read mode : Secure
Utilize accurate stream : Yes
Defeat audio cache : Yes
Make use of C2 pointers : No
Read offset correction : 6
Overread into Lead-In and Lead-Out : No
Fill up missing offset samples with silence : Yes
Delete leading and trailing silent blocks : No
Null samples used in CRC calculations : Yes
Used interface : Native Win32 interface for Win NT & 2000
Used output format : Monkey's Audio Lossless Encoder
Selected bitrate : High Lossless Compression
Quality : High
Add ID3 tag : Yes
Command line compressor : C:\Program Files (x86)\Exact Audio Copy\MAC\MAC.exe
TOC of the extracted CD
Track | Start | Length | Start sector | End sector
---------------------------------------------------------
1 | 0:00.00 | 3:16.57 | 0 | 14756
2 | 3:16.57 | 0:16.20 | 14757 | 15976
3 | 3:33.02 | 1:09.47 | 15977 | 21198
4 | 4:42.49 | 1:22.30 | 21199 | 27378
5 | 6:05.04 | 5:48.52 | 27379 | 53530
6 | 11:53.56 | 0:09.64 | 53531 | 54269
7 | 12:03.45 | 3:39.50 | 54270 | 70744
8 | 15:43.20 | 0:22.65 | 70745 | 72459
9 | 16:06.10 | 3:32.62 | 72460 | 88421
10 | 19:38.72 | 0:12.16 | 88422 | 89337
11 | 19:51.13 | 2:47.44 | 89338 | 101906
12 | 22:38.57 | 0:24.32 | 101907 | 103738
13 | 23:03.14 | 1:53.32 | 103739 | 112245
14 | 24:56.46 | 1:35.10 | 112246 | 119380
15 | 26:31.56 | 1:48.15 | 119381 | 127495
16 | 28:19.71 | 1:42.06 | 127496 | 135151
17 | 30:02.02 | 1:08.05 | 135152 | 140256
18 | 31:10.07 | 3:01.54 | 140257 | 153885
Range status and errors
Selected range
Filename D:\EAC\Lortzing - Regina, Schartner CD2.wav
Peak level 68.2 %
Extraction speed 2.9 X
Range quality 100.0 %
Test CRC 4728D4D1
Copy CRC 4728D4D1
Copy OK
No errors occurred
AccurateRip summary
Track 1 accurately ripped (confidence 1) [BB75FB78] (AR v1)
Track 2 accurately ripped (confidence 1) [271615F3] (AR v1)
Track 3 accurately ripped (confidence 1) [A39C522A] (AR v1)
Track 4 accurately ripped (confidence 1) [1DB72FFE] (AR v1)
Track 5 accurately ripped (confidence 1) [4797A564] (AR v1)
Track 6 accurately ripped (confidence 1) [EC899569] (AR v1)
Track 7 accurately ripped (confidence 1) [E46ED2E2] (AR v1)
Track 8 accurately ripped (confidence 1) [9CA87315] (AR v1)
Track 9 accurately ripped (confidence 1) [96302EA4] (AR v1)
Track 10 accurately ripped (confidence 1) [14E77ED4] (AR v1)
Track 11 accurately ripped (confidence 1) [4EAFF377] (AR v1)
Track 12 accurately ripped (confidence 1) [ADE5AD83] (AR v1)
Track 13 accurately ripped (confidence 1) [D1881EEE] (AR v1)
Track 14 accurately ripped (confidence 1) [A7DEB6E2] (AR v1)
Track 15 accurately ripped (confidence 1) [7238A760] (AR v1)
Track 16 accurately ripped (confidence 1) [E2856172] (AR v1)
Track 17 accurately ripped (confidence 1) [7AA66C74] (AR v1)
Track 18 accurately ripped (confidence 1) [D860F943] (AR v1)
All tracks accurately ripped
End of status report
---- CUETools DB Plugin V2.1.3
[CTDB TOCID: EFyPP7gCVfP_M6Ghh3yMdgEJhQA-] disk not present in database, Submit result: unrecognized or virtual drive
==== Log checksum B914C07B29B4956CB68C4A12FF234E442A3E35374286AAE8F872C6F0852C00A7 ====

Содержание индексной карты (.CUE)

CD1

REM GENRE Opera
REM DATE 1951
REM DISCID BB0C3A0F
REM COMMENT "ExactAudioCopy v1.0b3"
PERFORMER "Lortzing"
TITLE "Regina, Schartner CD1"
FILE "Lortzing - Regina, Schartner CD1.ape" WAVE
TRACK 01 AUDIO
TITLE "Ouvertüre"
PERFORMER "Lortzing"
ISRC 000000000000
INDEX 01 00:00:00
TRACK 02 AUDIO
TITLE "Wir wollen nicht"
PERFORMER "Lortzing"
ISRC 000000000000
INDEX 01 05:44:36
TRACK 03 AUDIO
TITLE "Nun seid vernüftig, Leute"
PERFORMER "Lortzing"
ISRC 000000000000
INDEX 01 13:21:47
TRACK 04 AUDIO
TITLE "Duett. O teurer Freund"
PERFORMER "Lortzing"
ISRC 000000000000
INDEX 01 13:59:61
TRACK 05 AUDIO
TITLE "Kommt herein"
PERFORMER "Lortzing"
ISRC 000000000000
INDEX 01 18:52:53
TRACK 06 AUDIO
TITLE "Arioso. O schöner Augenblick"
PERFORMER "Lortzing"
ISRC 000000000000
INDEX 01 19:01:65
TRACK 07 AUDIO
TITLE "Und wem verdanken wir dies Glück"
PERFORMER "Lortzing"
ISRC 000000000000
INDEX 01 21:53:16
TRACK 08 AUDIO
TITLE "O bester Herr"
PERFORMER "Lortzing"
ISRC 000000000000
INDEX 01 25:29:08
TRACK 09 AUDIO
TITLE "Arie. Was sprach der alte Tor?"
PERFORMER "Lortzing"
ISRC 000000000000
INDEX 01 29:25:74
TRACK 10 AUDIO
TITLE "Warum, wird mirhienieden"
PERFORMER "Lortzing"
ISRC 000000000000
INDEX 01 30:35:16
TRACK 11 AUDIO
TITLE "Erlaubet mir Euch nach dem Weg zu fragen"
PERFORMER "Lortzing"
ISRC 000000000000
INDEX 01 36:11:30
TRACK 12 AUDIO
TITLE "Kilian, eines vergassest du doch"
PERFORMER "Lortzing"
ISRC 000000000000
INDEX 01 38:28:13
TRACK 13 AUDIO
TITLE "Verloren sind wir alzumal"
PERFORMER "Lortzing"
ISRC 000000000000
INDEX 01 43:44:72
TRACK 14 AUDIO
TITLE "Bist du entschlossen?"
PERFORMER "Lortzing"
ISRC 000000000000
INDEX 01 48:35:64
TRACK 15 AUDIO
TITLE "Wolfgang! Wolfgang!"
PERFORMER "Lortzing"
ISRC 000000000000
INDEX 01 51:32:61

CD2

REM GENRE Opera
REM DATE 1951
REM DISCID 02080312
REM COMMENT "ExactAudioCopy v1.0b3"
PERFORMER "Lortzing"
TITLE "Regina, Schartner CD2"
FILE "Lortzing - Regina, Schartner CD2.ape" WAVE
TRACK 01 AUDIO
TITLE "Friedenslied. Nicht so bleiben kann dies Treiben"
PERFORMER "Lortzing"
ISRC 000000000000
INDEX 01 00:00:00
TRACK 02 AUDIO
TITLE "Was Führt dich in der Nacht"
PERFORMER "Lortzing"
ISRC 000000000000
INDEX 01 03:16:57
TRACK 03 AUDIO
TITLE "Das ist das Haus"
PERFORMER "Lortzing"
ISRC 000000000000
INDEX 01 03:33:02
TRACK 04 AUDIO
TITLE "Noch einmal sei'versucht"
PERFORMER "Lortzing"
ISRC 000000000000
INDEX 01 04:42:49
TRACK 05 AUDIO
TITLE "Duett. Was du begehrst, kann nimmer ich gewähren"
PERFORMER "Lortzing"
ISRC 000000000000
INDEX 01 06:05:04
TRACK 06 AUDIO
TITLE "Ist's besser, wenn wir allen wachen"
PERFORMER "Lortzing"
ISRC 000000000000
INDEX 01 11:53:56
TRACK 07 AUDIO
TITLE "Hinaus, hinaus in schnelster Frist"
PERFORMER "Lortzing"
ISRC 000000000000
INDEX 01 12:03:45
TRACK 08 AUDIO
TITLE "He Kilian auf"
PERFORMER "Lortzing"
ISRC 000000000000
INDEX 01 15:43:20
TRACK 09 AUDIO
TITLE "Sobald die Nacht"
PERFORMER "Lortzing"
ISRC 000000000000
INDEX 01 16:06:10
TRACK 10 AUDIO
TITLE "Fasst nur Mut, gestrenger Herr"
PERFORMER "Lortzing"
ISRC 000000000000
INDEX 01 19:38:72
TRACK 11 AUDIO
TITLE "Von fern entönet Siedesgeschrei"
PERFORMER "Lortzing"
ISRC 000000000000
INDEX 01 19:51:13
TRACK 12 AUDIO
TITLE "Halt! Bleibt hier mit Regina"
PERFORMER "Lortzing"
ISRC 000000000000
INDEX 01 22:38:57
TRACK 13 AUDIO
TITLE "Das Kilian uns erwischt"
PERFORMER "Lortzing"
ISRC 000000000000
INDEX 01 23:03:14
TRACK 14 AUDIO
TITLE "Wir sind verraten"
PERFORMER "Lortzing"
ISRC 000000000000
INDEX 01 24:56:46
TRACK 15 AUDIO
TITLE "Es nahet die entscheidung Augenblick"
PERFORMER "Lortzing"
ISRC 000000000000
INDEX 01 26:31:56
TRACK 16 AUDIO
TITLE "Verloren sind wir"
PERFORMER "Lortzing"
ISRC 000000000000
INDEX 01 28:19:71
TRACK 17 AUDIO
TITLE "Regina! Richard"
PERFORMER "Lortzing"
ISRC 000000000000
INDEX 01 30:02:02
TRACK 18 AUDIO
TITLE "Schlußchor. Frisch auf, frisch auf und einig seid!"
PERFORMER "Lortzing"
ISRC 000000000000
INDEX 00 31:10:06
INDEX 01 31:10:07



Показать сообщения:    

Текущее время: 04-Дек 06:54

Часовой пояс: UTC + 3


Вы не можете начинать темы
Вы не можете отвечать на сообщения
Вы не можете редактировать свои сообщения
Вы не можете удалять свои сообщения
Вы не можете голосовать в опросах
Вы не можете прикреплять файлы к сообщениям
Вы не можете скачивать файлы