(Classical) Mendelssohn - The Hebrides & Symphony No.3 'Scottish', Schumann - Piano Concerto (Maria Joao Pires & John Eliot Gardiner) - 2014, FLAC (image+.cue) lossless


 

[Цитировать]

Mendelssohn & Schumann
Жанр: Classical
Страна-производитель диска: Austria
Год издания диска: 2014
Издатель (лейбл): LSO
Номер по каталогу: LSO0765
Дата записи: I.2014
Аудиокодек: FLAC
Тип рипа: image+.cue
Битрейт аудио: lossless
Продолжительность: 1:19'17"
Источник: собственный рип
Наличие сканов в содержимом раздачи: да
Треклист:
Felix Mendelssohn
1. Overture: The Hebrides
Robert Schumann - Piano Concerto
2. I. Allegro affettuoso
3. II. Intermezzo: Andantino grazioso
4. III. Allegro vivace
Felix Mendelssohn - Symphony No.3 'Scottish'
5. I. Andante con moto - Allegro un poco agitato
6. II. Vivace non troppo
7. III. Adagio
8. IV. Allegro vivacissimo - Allegro maestoso assai
Исполнители:
Maria João Pires, piano
London Symphony Orchestra
Sir John Eliot Gardiner
-

Лог создания рипа

Exact Audio Copy V1.0 beta 4 from 7. December 2014
EAC extraction logfile from 14. May 2015, 20:50
Gardiner & Pires / Mendelssohn & Schumann
Used drive : TSSTcorpDVDWBD TS-LB23A Adapter: 1 ID: 0
Read mode : Secure
Utilize accurate stream : Yes
Defeat audio cache : Yes
Make use of C2 pointers : No
Read offset correction : 6
Overread into Lead-In and Lead-Out : No
Fill up missing offset samples with silence : Yes
Delete leading and trailing silent blocks : No
Null samples used in CRC calculations : Yes
Used interface : Native Win32 interface for Win NT & 2000
Used output format : User Defined Encoder
Selected bitrate : 128 kBit/s
Quality : High
Add ID3 tag : Yes
Command line compressor : C:\Program Files (x86)\Exact Audio Copy\Flac\flac.exe
Additional command line options : -T "COMMENT=Ripped by GFox" -V -8 %source%
TOC of the extracted CD
Track | Start | Length | Start sector | End sector
---------------------------------------------------------
1 | 0:00.00 | 10:01.43 | 0 | 45117
2 | 10:01.43 | 15:20.15 | 45118 | 114132
3 | 25:21.58 | 5:03.72 | 114133 | 136929
4 | 30:25.55 | 11:04.29 | 136930 | 186758
5 | 41:30.09 | 15:01.73 | 186759 | 254406
6 | 56:32.07 | 4:10.54 | 254407 | 273210
7 | 60:42.61 | 8:56.09 | 273211 | 313419
8 | 69:38.70 | 9:38.47 | 313420 | 356816
Range status and errors
Selected range
Filename D:\Downloads\Gardiner & Pires - Mendelssohn & Schumann.wav
Peak level 100.0 %
Extraction speed 1.7 X
Range quality 99.9 %
Test CRC 7CE1DC1D
Copy CRC 7CE1DC1D
Copy OK
No errors occurred
AccurateRip summary
Track 1 accurately ripped (confidence 6) [34208167] (AR v2)
Track 2 accurately ripped (confidence 7) [F6C5B1FF] (AR v2)
Track 3 accurately ripped (confidence 6) [DD48618F] (AR v2)
Track 4 accurately ripped (confidence 6) [35BDF373] (AR v2)
Track 5 accurately ripped (confidence 5) [16461F35] (AR v2)
Track 6 accurately ripped (confidence 5) [F9E0571B] (AR v2)
Track 7 accurately ripped (confidence 5) [B6D722DB] (AR v2)
Track 8 accurately ripped (confidence 6) [A030D6DB] (AR v2)
All tracks accurately ripped
End of status report
==== Log checksum C4E618416B79EF92C4F3003C077BB388CAD7AD6652289180B3BDDC5CFEA8BB11 ====
-



Показать сообщения:    

Текущее время: 07-Дек 23:16

Часовой пояс: UTC + 3


Вы не можете начинать темы
Вы не можете отвечать на сообщения
Вы не можете редактировать свои сообщения
Вы не можете удалять свои сообщения
Вы не можете голосовать в опросах
Вы не можете прикреплять файлы к сообщениям
Вы не можете скачивать файлы