[TR24][OF] J.S. Bach: Works for Trumpet - Alison Balsom (feat. Colm Carey, Alina Ibragimova / Алина Ибрагимова, Alistair Ross, Mark Caudle) - 2006/2014 (Classical)


Статистика раздачи [Обновить пиров]
Размер:  683 MB   |    Зарегистрирован:  8 месяцев 17 дней   |    Скачан:  0 раз

Полного источника не было: Никогда

 
   
 
 
 

[Цитировать]

Alison Balsom
Bach: Works for Trumpet
-Год издания/переиздания диска: 2006/2014
Жанр: Classical | Издатель (лейбл): Warner Classics
Продолжительность: 01:11:28 | Сканы: Sleeve, Digital Booklet- -Контейнер: FLAC (*.flac) | Тип рипа: tracks
Разрядность: 24bit /44.1kHz | Количество каналов: 2.0-Alison Balsom, trumpet
Colm Carey, organ
Alina Ibragimova, violin
Alistair Ross, harpsichord & chamber organ
Mark Caudle, viola de gamba
-Треклист
Johann Sebastian Bach (1685-1750)
Concerto in D major BWV 972 after Vivaldi
01.I. Allegro (2:04)
02. II. Adagio (3:50)
03. III. Allegro assai (2:10)
Cello Suite No.2 in D minor BWV 1008
04. IV. Sarabande (2:41)
05. VII. Gigue (2:38)
Aria Variata in A minor (Italian Variations) BWV 989
06. Aria Variata in A minor (Italian Variations) (9:24)
Partita No.3 in E major BWV 1006
07. VI. Gigue (2:06)
Trio Sonata in C major BWV 529
08. I. Allegro (4:55)
09. II. Largo (5:16)
10. III. Allegro (3:31)
Concerto in C minor BWV 974 after Marcello
11. I. Allegro (3:13)
12. II. Largo (3:41)
13. III. Presto (3:12)
Bist du bei mir from the Anna Magdalena Notebook BWV 508
14. Bist du bei mir from the Anna Magdalena Notebook (2:42)
Concerto in A major BWV 1055
15. I. Allegro (4:08)
16. II. Larghetto (5:02)
17. III. Allegro ma non tanto (4:24)
Orchestral Suite No.2 in B minor BWV 1067
18. VII. Badinerie (1:31)
Mass in B minor BWV 232
19. Agnus Dei (5:00)

О релизе


Delightful discovery
The title Bach: Works for Trumpet is a little misleading: While Bach did compose glorious music for that instrument, everything here is a transcription. No matter. Bach himself was an avid transcriber, and these adaptations would surely draw smiles from the old Saxon -- not least because of the virtuosity of the soloist, Alison Balsom, who navigates music originally for keyboard, cello, violin, voice, and other sources with equal aplomb. Most daring, perhaps, are Balsom's unaccompanied selections: two movements from one of the cello suites, a Gigue from a violin partita, and the lively Badinerie from the Second Orchestral Suite. There's nothing to mask shortcomings in technique on these solitary tracks, yet Balsom never loses her stride in music that must pose an extra challenge on trumpet rather than on the nimbler flute, violin, or cello. Organist Colm Carey steps in to accompany three transcribed concertos (two of which are in turn Bach revisions of scores by Vivaldi and Marcello, adding to the complexity), while a small chamber group joins the trumpeter for a trio sonata and part of the Agnus Dei from the B Minor Mass. A harpsichord-accompanied Italian Variations and a version of the beautiful song 'Du bist bei mir,' with chamber organ and viola da gamba, complete the album's pleasingly diverse assortment of backup combinations. Balsom's playing is spirited and expressive, with a tone that swaps brassy glitz for a supple vocal quality. All in all, an impressive major-label debut that reveals a talent to keep an eye on.
“…as a showcase for this young artist's mesmerising virtuosity the disc does its job admirably, and presents some familiar and less familiar Bach in new guises at the same time. The supporting instrumentalists, especially organist Colm Carey, make a sterling contribution...” (BBC Music Magazine)
“A disc of arrangements which is impressive on every level. Beautifully mellow playing contrasting with virtuosic moments.” (Classic FM Magazine)

ОтчётыДинамический диапазон

foobar2000 1.2.2 / Dynamic Range Meter 1.1.1
log date: 2015-05-14 09:44:15
--------------------------------------------------------------------------------
Analyzed: Alison Balsom, Alina Ibragimova, Mark Caudle, Alistair Ross / Bach: Works for Trumpet (1-4)
Alison Balsom, Alistair Ross, Colm Carey / Bach: Works for Trumpet (5)
Alison Balsom, Colm Carey / Bach: Works for Trumpet (6-14)
Alison Balsom, Mark Caudle, Alistair Ross / Bach: Works for Trumpet (15)
Alison Balsom / Bach: Works for Trumpet (16-19)
--------------------------------------------------------------------------------
DR Peak RMS Duration Track
--------------------------------------------------------------------------------
DR13 -1.15 dB -18.20 dB 4:55 ?-Trio Sonata in C major BWV 529 - I. Allegro
DR11 -4.51 dB -19.79 dB 5:16 ?-Trio Sonata in C major BWV 529 - II. Largo
DR13 -2.71 dB -18.61 dB 3:31 ?-Trio Sonata in C major BWV 529 - III. Allegro
DR12 -4.78 dB -20.84 dB 5:00 ?-Mass in B minor BWV 232 - Agnus Dei
DR14 -2.04 dB -21.14 dB 9:24 ?-Aria Variata in A minor (Italian Variations) BWV 989
DR12 -0.07 dB -17.09 dB 2:04 ?-Concerto in D major BWV 972 after Vivaldi - I. Allegro
DR11 -5.43 dB -20.57 dB 3:50 ?-Concerto in D major BWV 972 after Vivaldi - II. Adagio
DR11 -0.03 dB -16.45 dB 2:10 ?-Concerto in D major BWV 972 after Vivaldi - III. Allegro assai
DR12 -2.17 dB -19.07 dB 3:13 ?-Concerto in C minor BWV 974 after Marcello - I. Allegro
DR11 -5.31 dB -19.59 dB 3:41 ?-Concerto in C minor BWV 974 after Marcello - II. Largo
DR12 -0.20 dB -16.98 dB 3:12 ?-Concerto in C minor BWV 974 after Marcello - III. Presto
DR13 -0.14 dB -17.29 dB 4:08 ?-Concerto in A major BWV 1055 - I. Allegro
DR12 -4.79 dB -21.16 dB 5:02 ?-Concerto in A major BWV 1055 - II. Larghetto
DR12 -0.17 dB -15.22 dB 4:24 ?-Concerto in A major BWV 1055 - III. Allegro ma non tanto
DR11 -6.05 dB -20.03 dB 2:42 ?-Bist du bei mir from the Anna Magdalena Notebook BWV 508
DR11 -2.73 dB -19.31 dB 2:41 ?-Cello Suite No.2 in D minor BWV 1008 - IV. Sarabande
DR12 -2.97 dB -20.03 dB 2:38 ?-Cello Suite No.2 in D minor BWV 1008 - VII. Gigue
DR12 -1.79 dB -18.75 dB 2:06 ?-Partita No.3 in E major BWV 1006 - VI. Gigue
DR13 -1.28 dB -17.64 dB 1:31 ?-Orchestral Suite No.2 in B minor BWV 1067 - VII. Badinerie
--------------------------------------------------------------------------------
Number of tracks: 19
Official DR value: DR12
Samplerate: 44100 Hz
Channels: 2
Bits per sample: 24
Bitrate: 1252 kbps
Codec: FLAC
================================================================================

Скриншот спектра частот

Доп. информация

При скачивании, если необходимо, переименуйте папку, в которой будет находиться альбомБольшая просьба к скачавшим поддерживать раздачу! Помогайте другим, ведь вам тоже может понадобиться помощь!Не забываем говорить "Спасибо"!Комментарии приветствуются!
Alison Balsom Hi-Res
[teatrix.ru].t21167.torrent 
Торрент: Зарегистрирован [ 2016-03-20 00:51 ] · 0A3255A4AAB1C81B4FE6A65C48BE501ED24E4404

Скачать .torrent

Скачать

16 KB

Статус: проверено
Скачан: 0 раз
Размер: 683 MB
terms.php



Быстрый ответ

Имя:

      
Для отправки сообщений необходимо включить JavaScript
Показать сообщения:    

Текущее время: 06-Дек 22:49

Часовой пояс: UTC + 3


Вы можете начинать темы
Вы можете отвечать на сообщения
Вы не можете редактировать свои сообщения
Вы не можете удалять свои сообщения
Вы не можете голосовать в опросах
Вы не можете прикреплять файлы к сообщениям
Вы можете скачивать файлы