[TR24][OF] J.S. Bach - Das Wohltemperierte Klavier (Well-Tempered Clavier) - John Butt - 2014 (Classical / Harpsichord)


Статистика раздачи [Обновить пиров]
Размер:  8.6 GB   |    Зарегистрирован:  8 месяцев 16 дней   |    Скачан:  0 раз

Полного источника не было: Никогда

 
   
 
 
 

[Цитировать]

J.S. Bach
Das Wohltemperierte Klavier
John Butt
- Год издания: 2014
Жанр: Classical / Harpsichord
Издатель (лейбл): Linn Records
Продолжительность: 03:32:23
Наличие сканов: Sleeve, Inlay, Digital Booklet- -Контейнер: FLAC (*.flac)
Тип рипа: tracks
Разрядность: 24bit /192kHz
Количество каналов: 2.0
-
John Butt, harpsichord
Recorded: St Martin’s, East Woodhay, Hampshire, UK, 15–18 July 2013
-Треклист
Johann Sebastian Bach (1685-1750)
The Well-Tempered Clavier Book I
01. Prelude No. 1 in C Major, BWV 846 (2:00)
02. Fugue No. 1 in C Major, BWV 846 (1:31)
03. Prelude No. 2 in C Minor, BWV 847 (1:26)
04. Fugue No. 2 in C Minor, BWV 847 (1:20)
05. Prelude No. 3 in C sharp Major, BWV 848 (1:20)
06. Fugue No. 3 in C sharp Major, BWV 848 (2:16)
07. Prelude No. 4 in C sharp Minor, BWV 849 (1:53)
08. Fugue No. 4 in C sharp Minor, BWV 849 (2:45)
09. Prelude No. 5 in D Major, BWV 850 (1:11)
10. Fugue No. 5 in D Major, BWV 850 (1:34)
11. Prelude No. 6 in D Minor, BWV 851 (1:20)
12. Fugue No. 6 in D Minor, BWV 851 (1:46)
13. Prelude No. 7 in E flat Major, BWV 852 (3:28)
14. Fugue No. 7 in E flat Major, BWV 852 (1:34)
15. Prelude No. 8 in E flat Minor, BWV 853 (2:23)
16. Fugue No. 8 in D sharp Minor, BWV 853 (3:50)
17. Prelude No. 9 in E Major, BWV 854 (1:18)
18. Fugue No. 9 in E Major, BWV 854 (1:14)
19. Prelude No. 10 in E Minor, BWV 855 (1:42)
20. Fugue No. 10 in E Minor, BWV 855 (1:23)
21. Prelude No. 11 in F Major, BWV 856 (1:03)
22. Fugue No. 11 in F Major, BWV 856 (1:12)
23. Prelude No. 12 in F Minor, BWV 857 (1:14)
24. Fugue No. 12 in F Minor, BWV 857 (2:49)
25. Prelude No. 13 in F sharp Major, BWV 858 (1:24)
26. Fugue No. 13 in F sharp Major, BWV 858 (1:33)
27. Prelude No. 14 in F sharp Minor, BWV 859 (1:19)
28. Fugue No. 14 in F sharp Minor, BWV 859 (1:52)
29. Prelude No. 15 in G Major, BWV 860 (0:52)
30. Fugue No. 15 in G Major, BWV 860 (2:38)
31. Prelude No. 16 in G Minor, BWV 861 (1:09)
32. Fugue No. 16 in G Minor, BWV 861 (1:32)
33. Prelude No. 17 in A flat Major, BWV 862 (1:22)
34. Fugue No. 17 in A flat Major, BWV 862 (1:56)
35. Prelude No. 18 in G sharp Minor, BWV 863 (1:13)
36. Fugue No. 18 in G sharp Minor, BWV 863 (1:52)
37. Prelude No. 19 in A Major, BWV 864 (1:21)
38. Fugue No. 19 in A Major, BWV 864 (2:02)
39. Prelude No. 20 in A Minor, BWV 865 (1:08)
40. Fugue No. 20 in A Minor, BWV 865 (3:48)
41. Prelude No. 21 in B flat Major, BWV 866 (1:15)
42. Fugue No. 21 in B flat Major, BWV 866 (1:38)
43. Prelude No. 22 in B flat Minor, BWV 867 (2:17)
44. Fugue No. 22 in B flat Minor, BWV 867 (1:58)
45. Prelude No. 23 in B Major, BWV 868 (0:57)
46. Fugue No. 23 in B Major, BWV 868 (1:36)
47. Prelude No. 24 in B Minor, BWV 869 (4:06)
48. Fugue No. 24 in B Minor, BWV 869 (5:08)
The Well-Tempered Clavier Book II
49. Prelude No. 1 in C Major, BWV 870 (2:01)
50. Fugue No. 1 in C Major, BWV 870 (1:40)
51. Prelude No. 2 in C Minor, BWV 871 (2:00)
52. Fugue No. 2 in C Minor, BWV 871 (1:45)
53. Prelude No. 3 in C sharp Major, BWV 872 (1:44)
54. Fugue No. 3 in C sharp Major, BWV 872 (1:38)
55. Prelude No. 4 in C sharp Minor, BWV 873 (3:16)
56. Fugue No. 4 in C sharp Minor, BWV 873 (2:01)
57. Prelude No. 5 in D Major, BWV 874 (5:16)
58. Fugue No. 5 in D Major, BWV 874 (1:57)
59. Prelude No. 6 in D Minor, BWV 875 (1:35)
60. Fugue No. 6 in D Minor, BWV 875 (1:38)
61. Prelude No. 7 in E flat Major, BWV 876 (2:38)
62. Fugue No. 7 in E flat Major, BWV 876 (1:35)
63. Prelude No. 8 in D sharp Minor, BWV 877 (4:07)
64. Fugue No. 8 in D sharp Minor, BWV 877 (2:19)
65. Prelude No. 9 in E Major, BWV 878 (4:14)
66. Fugue No. 9 in E Major, BWV 878 (2:14)
67. Prelude No. 10 in E Minor, BWV 879 (3:37)
68. Fugue No. 10 in E Minor, BWV 879 (2:40)
69. Prelude No. 11 in F Major, BWV 880 (2:52)
70. Fugue No. 11 in F Major, BWV 880 (1:30)
71. Prelude No. 12 in F Minor, BWV 881 (3:34)
72. Fugue No. 12 in F Minor, BWV 881 (1:57)
73. Prelude No. 13 in F sharp Major, BWV 882 (2:42)
74. Fugue No. 13 in F sharp Major, BWV 882 (2:05)
75. Prelude No. 14 in F sharp Minor, BWV 883 (2:21)
76. Fugue No. 14 in F sharp Minor, BWV 883 (3:36)
77. Prelude No. 15 in G Major, BWV 884 (2:24)
78. Fugue No. 15 in G Major, BWV 884 (1:16)
79. Prelude No. 16 in G Minor, BWV 885 (2:22)
80. Fugue No. 16 in G Minor, BWV 885 (2:48)
81. Prelude No. 17 in A flat Major, BWV 886 (3:25)
82. Fugue No. 17 in A flat Major, BWV 886 (2:15)
83. Prelude No. 18 in G sharp Minor, BWV 887 (5:15)
84. Fugue No. 18 in G sharp Minor, BWV 887 (3:25)
85. Prelude No. 19 in A Major, BWV 888 (1:40)
86. Fugue No. 19 in A Major, BWV 888 (1:21)
87. Prelude No. 20 in A Minor, BWV 889 (3:30)
88. Fugue No. 20 in A Minor, BWV 889 (1:42)
89. Prelude No. 21 in B flat Major, BWV 890 (5:17)
90. Fugue No. 21 in B flat Major, BWV 890 (1:54)
91. Prelude No. 22 in B flat Minor, BWV 891 (2:27)
92. Fugue No. 22 in B flat Minor, BWV 891 (3:21)
93. Prelude No. 23 in B Major, BWV 892 (1:59)
94. Fugue No. 23 in B Major, BWV 892 (2:30)
95. Prelude No. 24 in B Minor, BWV 893 (1:47)
96. Fugue No. 24 in B Minor, BWV 893 (1:48)

О релизе


The majority of modern recordings of J.S. Bach's Well-Tempered Clavier are of piano performances, and the few harpsichord versions that come along often attract notice because of their relative scarcity. John Butt's set on Linn warrants attention, not only for being a rarity, but more importantly for the extraordinary quality of his interpretations. An authority on Bach, Butt has written several books on the composer and distinguished himself as an expert on German Baroque music, both as a harpsichordist and conductor. Yet for all of his credentials, his playing of the WTC is far from pedantic or dry. His clear counterpoint, flexible rhythms, brisk tempos, lively ornamentation, and fluid phrasing make the 48 preludes and fugues fully musical and expressive, and at no point does the performance become dry or mechanical. Essential to this set's success is the distinctive character of each piece, which keeps the listener alert to the variety of styles and expressions possible in this compendium of the keyboard art. Butt plays a modern copy of a German harpsichord, and the sound is full and vibrant in the stereo recording, made at St. Martin's, East Woodhay, Hampshire, UK in 2013. Highly recommended.
Review by Blair Sanderson

ОтчётыДинамический диапазон

foobar2000 1.2.2 / Dynamic Range Meter 1.1.1
log date: 2015-05-15 02:20:31
--------------------------------------------------------------------------------
Analyzed: John Butt / J.S. Bach: Das Wohltemperierte Klavier
--------------------------------------------------------------------------------
DR Peak RMS Duration Track
--------------------------------------------------------------------------------
DR10 -5.60 dB -18.52 dB 2:00 ?-The Well-Tempered Clavier Book I: Prelude No. 1 in C Major, BWV 846
DR11 -3.72 dB -16.79 dB 1:31 ?-The Well-Tempered Clavier Book I: Fugue No. 1 in C Major, BWV 846
DR11 -1.62 dB -15.95 dB 1:26 ?-The Well-Tempered Clavier Book I: Prelude No. 2 in C Minor, BWV 847
DR11 -2.76 dB -17.18 dB 1:20 ?-The Well-Tempered Clavier Book I: Fugue No. 2 in C Minor, BWV 847
DR11 -7.73 dB -20.69 dB 1:20 ?-The Well-Tempered Clavier Book I: Prelude No. 3 in C sharp Major, BWV 848
DR11 -3.16 dB -16.86 dB 2:16 ?-The Well-Tempered Clavier Book I: Fugue No. 3 in C sharp Major, BWV 848
DR11 -5.32 dB -18.37 dB 1:53 ?-The Well-Tempered Clavier Book I: Prelude No. 4 in C sharp Minor, BWV 849
DR12 -0.80 dB -15.33 dB 2:45 ?-The Well-Tempered Clavier Book I: Fugue No. 4 in C sharp Minor, BWV 849
DR12 -2.66 dB -17.40 dB 1:11 ?-The Well-Tempered Clavier Book I: Prelude No. 5 in D Major, BWV 850
DR12 -0.77 dB -15.60 dB 1:34 ?-The Well-Tempered Clavier Book I: Fugue No. 5 in D Major, BWV 850
DR11 -2.57 dB -17.35 dB 1:20 ?-The Well-Tempered Clavier Book I: Prelude No. 6 in D Minor, BWV 851
DR11 -2.91 dB -17.20 dB 1:46 ?-The Well-Tempered Clavier Book I: Fugue No. 6 in D Minor, BWV 851
DR11 -4.12 dB -18.28 dB 3:28 ?-The Well-Tempered Clavier Book I: Prelude No. 7 in E flat Major, BWV 852
DR11 -2.69 dB -16.83 dB 1:34 ?-The Well-Tempered Clavier Book I: Fugue No. 7 in E flat Major, BWV 852
DR13 -5.84 dB -21.12 dB 2:23 ?-The Well-Tempered Clavier Book I: Prelude No. 8 in E flat Minor, BWV 853
DR12 -3.66 dB -17.21 dB 3:50 ?-The Well-Tempered Clavier Book I: Fugue No. 8 in D sharp Minor, BWV 853
DR11 -5.67 dB -19.23 dB 1:18 ?-The Well-Tempered Clavier Book I: Prelude No. 9 in E Major, BWV 854
DR11 -4.11 dB -16.33 dB 1:14 ?-The Well-Tempered Clavier Book I: Fugue No. 9 in E Major, BWV 854
DR11 -2.25 dB -15.87 dB 1:42 ?-The Well-Tempered Clavier Book I: Prelude No. 10 in E Minor, BWV 855
DR11 -2.50 dB -16.24 dB 1:23 ?-The Well-Tempered Clavier Book I: Fugue No. 10 in E Minor, BWV 855
DR11 -4.87 dB -17.90 dB 1:03 ?-The Well-Tempered Clavier Book I: Prelude No. 11 in F Major, BWV 856
DR11 -3.10 dB -16.52 dB 1:12 ?-The Well-Tempered Clavier Book I: Fugue No. 11 in F Major, BWV 856
DR11 -6.90 dB -20.42 dB 1:14 ?-The Well-Tempered Clavier Book I: Prelude No. 12 in F Minor, BWV 857
DR12 -1.91 dB -16.88 dB 2:49 ?-The Well-Tempered Clavier Book I: Fugue No. 12 in F Minor, BWV 857
DR11 -6.09 dB -19.68 dB 1:24 ?-The Well-Tempered Clavier Book I: Prelude No. 13 in F sharp Major, BWV 858
DR11 -3.13 dB -17.01 dB 1:33 ?-The Well-Tempered Clavier Book I: Fugue No. 13 in F sharp Major, BWV 858
DR11 -6.86 dB -20.98 dB 1:19 ?-The Well-Tempered Clavier Book I: Prelude No. 14 in F sharp Minor, BWV 859
DR12 -2.41 dB -16.84 dB 1:52 ?-The Well-Tempered Clavier Book I: Fugue No. 14 in F sharp Minor, BWV 859
DR11 -2.10 dB -16.13 dB 0:52 ?-The Well-Tempered Clavier Book I: Prelude No. 15 in G Major, BWV 860
DR11 -1.81 dB -15.10 dB 2:38 ?-The Well-Tempered Clavier Book I: Fugue No. 15 in G Major, BWV 860
DR11 -1.52 dB -16.64 dB 1:09 ?-The Well-Tempered Clavier Book I: Prelude No. 16 in G Minor, BWV 861
DR11 -3.01 dB -17.09 dB 1:32 ?-The Well-Tempered Clavier Book I: Fugue No. 16 in G Minor, BWV 861
DR11 -5.71 dB -19.24 dB 1:22 ?-The Well-Tempered Clavier Book I: Prelude No. 17 in A flat Major, BWV 862
DR11 -2.93 dB -16.78 dB 1:56 ?-The Well-Tempered Clavier Book I: Fugue No. 17 in A flat Major, BWV 862
DR11 -7.52 dB -20.77 dB 1:13 ?-The Well-Tempered Clavier Book I: Prelude No. 18 in G sharp Minor, BWV 863
DR11 -2.94 dB -17.80 dB 1:52 ?-The Well-Tempered Clavier Book I: Fugue No. 18 in G sharp Minor, BWV 863
DR10 -4.92 dB -18.17 dB 1:21 ?-The Well-Tempered Clavier Book I: Prelude No. 19 in A Major, BWV 864
DR11 -3.52 dB -17.25 dB 2:02 ?-The Well-Tempered Clavier Book I: Fugue No. 19 in A Major, BWV 864
DR11 -2.60 dB -16.83 dB 1:08 ?-The Well-Tempered Clavier Book I: Prelude No. 20 in A Minor, BWV 865
DR12 -2.82 dB -16.76 dB 3:48 ?-The Well-Tempered Clavier Book I: Fugue No. 20 in A Minor, BWV 865
DR13 -0.45 dB -17.06 dB 1:15 ?-The Well-Tempered Clavier Book I: Prelude No. 21 in B flat Major, BWV 866
DR12 -3.36 dB -17.40 dB 1:38 ?-The Well-Tempered Clavier Book I: Fugue No. 21 in B flat Major, BWV 866
DR11 -3.72 dB -18.79 dB 2:17 ?-The Well-Tempered Clavier Book I: Prelude No. 22 in B flat Minor, BWV 867
DR12 -1.87 dB -16.86 dB 1:58 ?-The Well-Tempered Clavier Book I: Fugue No. 22 in B flat Minor, BWV 867
DR11 -7.39 dB -20.93 dB 0:57 ?-The Well-Tempered Clavier Book I: Prelude No. 23 in B Major, BWV 868
DR11 -2.88 dB -16.93 dB 1:36 ?-The Well-Tempered Clavier Book I: Fugue No. 23 in B Major, BWV 868
DR11 -4.72 dB -19.33 dB 4:06 ?-The Well-Tempered Clavier Book I: Prelude No. 24 in B Minor, BWV 869
DR12 -3.40 dB -17.69 dB 5:08 ?-The Well-Tempered Clavier Book I: Fugue No. 24 in B Minor, BWV 869
DR11 -5.17 dB -18.62 dB 2:01 ?-The Well-Tempered Clavier Book II: Prelude No. 1 in C Major, BWV 870
DR11 -2.36 dB -17.12 dB 1:40 ?-The Well-Tempered Clavier Book II: Fugue No. 1 in C Major, BWV 870
DR11 -4.50 dB -17.30 dB 2:00 ?-The Well-Tempered Clavier Book II: Prelude No. 2 in C Minor, BWV 871
DR11 -5.90 dB -19.75 dB 1:45 ?-The Well-Tempered Clavier Book II: Fugue No. 2 in C Minor, BWV 871
DR11 -7.05 dB -20.66 dB 1:44 ?-The Well-Tempered Clavier Book II: Prelude No. 3 in C sharp Major, BWV 872
DR11 -3.69 dB -17.78 dB 1:38 ?-The Well-Tempered Clavier Book II: Fugue No. 3 in C sharp Major, BWV 872
DR11 -4.01 dB -18.78 dB 3:16 ?-The Well-Tempered Clavier Book II: Prelude No. 4 in C sharp Minor, BWV 873
DR11 -3.42 dB -16.49 dB 2:01 ?-The Well-Tempered Clavier Book II: Fugue No. 4 in C sharp Minor, BWV 873
DR12 -1.27 dB -15.72 dB 5:16 ?-The Well-Tempered Clavier Book II: Prelude No. 5 in D Major, BWV 874
DR11 -2.85 dB -15.94 dB 1:57 ?-The Well-Tempered Clavier Book II: Fugue No. 5 in D Major, BWV 874
DR11 -3.07 dB -16.92 dB 1:35 ?-The Well-Tempered Clavier Book II: Prelude No. 6 in D Minor, BWV 875
DR11 -2.56 dB -17.32 dB 1:38 ?-The Well-Tempered Clavier Book II: Fugue No. 6 in D Minor, BWV 875
DR11 -8.96 dB -22.41 dB 2:38 ?-The Well-Tempered Clavier Book II: Prelude No. 7 in E flat Major, BWV 876
DR11 -4.55 dB -18.17 dB 1:35 ?-The Well-Tempered Clavier Book II: Fugue No. 7 in E flat Major, BWV 876
DR12 -4.47 dB -18.91 dB 4:07 ?-The Well-Tempered Clavier Book II: Prelude No. 8 in D sharp Minor, BWV 877
DR12 -1.97 dB -17.45 dB 2:19 ?-The Well-Tempered Clavier Book II: Fugue No. 8 in D sharp Minor, BWV 877
DR12 -7.60 dB -21.46 dB 4:14 ?-The Well-Tempered Clavier Book II: Prelude No. 9 in E Major, BWV 878
DR12 -2.29 dB -16.32 dB 2:14 ?-The Well-Tempered Clavier Book II: Fugue No. 9 in E Major, BWV 878
DR12 -2.30 dB -16.39 dB 3:37 ?-The Well-Tempered Clavier Book II: Prelude No. 10 in E Minor, BWV 879
DR12 -2.09 dB -17.10 dB 2:40 ?-The Well-Tempered Clavier Book II: Fugue No. 10 in E Minor, BWV 879
DR11 -5.20 dB -18.08 dB 2:52 ?-The Well-Tempered Clavier Book II: Prelude No. 11 in F Major, BWV 880
DR11 -3.56 dB -16.84 dB 1:30 ?-The Well-Tempered Clavier Book II: Fugue No. 11 in F Major, BWV 880
DR12 -6.58 dB -22.27 dB 3:34 ?-The Well-Tempered Clavier Book II: Prelude No. 12 in F Minor, BWV 881
DR12 -2.90 dB -17.60 dB 1:57 ?-The Well-Tempered Clavier Book II: Fugue No. 12 in F Minor, BWV 881
DR12 -4.63 dB -19.05 dB 2:42 ?-The Well-Tempered Clavier Book II: Prelude No. 13 in F sharp Major, BWV 882
DR12 -1.86 dB -17.23 dB 2:05 ?-The Well-Tempered Clavier Book II: Fugue No. 13 in F sharp Major, BWV 882
DR11 -7.26 dB -20.45 dB 2:21 ?-The Well-Tempered Clavier Book II: Prelude No. 14 in F sharp Minor, BWV 883
DR11 -5.07 dB -18.34 dB 3:36 ?-The Well-Tempered Clavier Book II: Fugue No. 14 in F sharp Minor, BWV 883
DR12 -3.13 dB -16.71 dB 2:24 ?-The Well-Tempered Clavier Book II: Prelude No. 15 in G Major, BWV 884
DR11 -1.43 dB -16.32 dB 1:16 ?-The Well-Tempered Clavier Book II: Fugue No. 15 in G Major, BWV 884
DR12 -8.06 dB -23.26 dB 2:22 ?-The Well-Tempered Clavier Book II: Prelude No. 16 in G Minor, BWV 885
DR13 -1.88 dB -17.77 dB 2:48 ?-The Well-Tempered Clavier Book II: Fugue No. 16 in G Minor, BWV 885
DR11 -6.26 dB -19.56 dB 3:25 ?-The Well-Tempered Clavier Book II: Prelude No. 17 in A flat Major, BWV 886
DR11 -3.38 dB -17.15 dB 2:15 ?-The Well-Tempered Clavier Book II: Fugue No. 17 in A flat Major, BWV 886
DR11 -5.46 dB -19.24 dB 5:15 ?-The Well-Tempered Clavier Book II: Prelude No. 18 in G sharp Minor, BWV 887
DR11 -3.85 dB -17.89 dB 3:25 ?-The Well-Tempered Clavier Book II: Fugue No. 18 in G sharp Minor, BWV 887
DR10 -5.81 dB -18.43 dB 1:40 ?-The Well-Tempered Clavier Book II: Prelude No. 19 in A Major, BWV 888
DR10 -4.14 dB -17.15 dB 1:21 ?-The Well-Tempered Clavier Book II: Fugue No. 19 in A Major, BWV 888
DR12 -2.43 dB -16.45 dB 3:30 ?-The Well-Tempered Clavier Book II: Prelude No. 20 in A Minor, BWV 889
DR11 -3.91 dB -17.01 dB 1:42 ?-The Well-Tempered Clavier Book II: Fugue No. 20 in A Minor, BWV 889
DR12 -3.62 dB -16.92 dB 5:17 ?-The Well-Tempered Clavier Book II: Prelude No. 21 in B flat Major, BWV 890
DR11 -3.18 dB -16.59 dB 1:54 ?-The Well-Tempered Clavier Book II: Fugue No. 21 in B flat Major, BWV 890
DR11 -5.61 dB -18.70 dB 2:27 ?-The Well-Tempered Clavier Book II: Prelude No. 22 in B flat Minor, BWV 891
DR12 -3.54 dB -17.70 dB 3:21 ?-The Well-Tempered Clavier Book II: Fugue No. 22 in B flat Minor, BWV 891
DR12 -6.57 dB -21.27 dB 1:59 ?-The Well-Tempered Clavier Book II: Prelude No. 23 in B Major, BWV 892
DR12 -2.97 dB -17.26 dB 2:30 ?-The Well-Tempered Clavier Book II: Fugue No. 23 in B Major, BWV 892
DR11 -3.60 dB -16.64 dB 1:47 ?-The Well-Tempered Clavier Book II: Prelude No. 24 in B Minor, BWV 893
DR11 -1.97 dB -16.89 dB 1:48 ?-The Well-Tempered Clavier Book II: Fugue No. 24 in B Minor, BWV 893
--------------------------------------------------------------------------------
Number of tracks: 96
Official DR value: DR11
Samplerate: 192000 Hz
Channels: 2
Bits per sample: 24
Bitrate: 5761 kbps
Codec: FLAC
================================================================================

Скриншот спектра частот

Доп. информация

При скачивании, если необходимо, переименуйте папку, в которой будет находиться альбомБольшая просьба к скачавшим поддерживать раздачу! Помогайте другим, ведь вам тоже может понадобиться помощь!Не забываем говорить "Спасибо"!Комментарии приветствуются!
[teatrix.ru].t21168.torrent 
Торрент: Зарегистрирован [ 2016-03-20 00:51 ] · D6C69D1D25437AEA1151219E9F1ACA557155A799

Скачать .torrent

Скачать

54 KB

Статус: проверено
Скачан: 0 раз
Размер: 8.6 GB
terms.php



Быстрый ответ

Имя:

      
Для отправки сообщений необходимо включить JavaScript
Показать сообщения:    

Текущее время: 05-Дек 03:30

Часовой пояс: UTC + 3


Вы можете начинать темы
Вы можете отвечать на сообщения
Вы не можете редактировать свои сообщения
Вы не можете удалять свои сообщения
Вы не можете голосовать в опросах
Вы не можете прикреплять файлы к сообщениям
Вы можете скачивать файлы