(Classical) [LP] [24/48] Alexander Goldenweiser - Piano - Из Сокровищницы Мирового Исполнительского Искусства - 1980, FLAC (tracks+.cue)


Статистика раздачи [Обновить пиров]
Размер:  209 MB   |    Зарегистрирован:  8 месяцев 20 дней   |    Скачан:  0 раз

Полного источника не было: Никогда

 
   
 
 
 

[Цитировать]

Alexander Goldenweiser - Piano - Из Сокровищницы Мирового Исполнительского Искусства
Жанр: Classical
Носитель: LP
Год выпуска: 1980
Лейбл: Melodya (LSG)
Страна-производитель: USSR
Аудио кодек: FLAC
Тип рипа: tracks+.cue
Формат записи: 32/192
Формат раздачи: 24/48
Продолжительность: 42.19 min
Треклист:
Side One:
L. Beethoven
01. Six Variations in D Major, Op. 76
F. Schubert
02. Musical Moment in E Minor, Op. 94 No.4
F. Chopin
03. Etude in E Major, Op. 10 No.3
04. Etude in C Sharp Minor, Op. 10 No.4
05. Etude in A Flat Major, Op. 72 No.3
Side Two:
P. Tchaikovsky
06. Nocturne in F Major, Op. 10 No.1
07. Nocturne in C Sharp Minor, Op. 19 No.4
A. Arensky
08. Sketch in F Major, Op. 24 No.1
09. Barcarolle, Op 36 No.11
S. Rachmaninov
10. Melody in E Major, Op. 3 No.3
A. Scriabin
11. Prelude In E Major, Op. 15 No.4
12. Prelude in C Sharp Minor, Op. 15 No.5
13. Prelude in E Flat Minor, Op. 16 No.4
Archive recordings of 1947-1957
Источник оцифровки: автором раздачи
Код класса состояния винила: Mint
Устройство воспроизведения: Электроника ЭП 017С
Головка звукоснимателя: Audio-Technica AT95
Предварительный усилитель: Бриг-001
АЦП: VIA HD audio device
Программа-оцифровщик: Izotope RX 4 Advanced
Обработка: Izotope RX 4 Advanced

Спектр+АЧХ+Уровень записи

DR=12

foobar2000 1.1.10 / Dynamic Range Meter 1.1.1
log date: 2015-05-15 14:50:58
--------------------------------------------------------------------------------
Analyzed: Alexander Goldenweiser / The World's Leading Interpreters Of Music - Piano
--------------------------------------------------------------------------------
DR Peak RMS Duration Track
--------------------------------------------------------------------------------
DR12 -0.87 dB -18.20 dB 6:25 ?-Six Variations in D Major, Op. 76
DR12 -4.61 dB -21.98 dB 4:14 ?-Musical Moment in E Minor, Op. 94 No.4
DR12 -1.85 dB -19.30 dB 4:13 ?-Etude in E Major, Op. 10 No.3
DR12 -2.67 dB -20.96 dB 4:23 ?-Etude in C Sharp Minor, Op. 10 No.4
DR13 -1.22 dB -17.96 dB 1:57 ?-Etude in A Flat Major, Op. 72 No.3
DR14 -3.21 dB -21.49 dB 4:16 ?-Nocturne in F Major, Op. 10 No.1
DR11 -4.06 dB -19.25 dB 3:33 ?-Nocturne in C Sharp Minor, Op. 19 No.4
DR11 -4.80 dB -18.98 dB 3:30 ?-Sketch in F Major, Op. 24 No.1
DR11 -4.92 dB -21.01 dB 2:16 ?-Barcarolle, Op 36 No.11
DR12 -1.78 dB -19.36 dB 4:05 ?-Melody in E Major, Op. 3 No.3
DR13 -9.39 dB -26.20 dB 1:26 ?-Prelude In E Major, Op. 15 No.4
DR14 -2.13 dB -20.55 dB 1:12 ?-Prelude in C Sharp Minor, Op. 15 No.5
DR9 -1.78 dB -22.45 dB 0:50 ?-Prelude in E Flat Minor, Op. 16 No.4
--------------------------------------------------------------------------------
Number of tracks: 13
Official DR value: DR12
Samplerate: 48000 Hz
Channels: 1
Bits per sample: 24
Bitrate: 625 kbps
Codec: FLAC
================================================================================

Back, Inner & Disc

[teatrix.ru].t21169.torrent 
Торрент: Зарегистрирован [ 2016-03-20 00:51 ] · 771ADA14B28F7D764F64CF7B651667964CEFB735

Скачать .torrent

Скачать

18 KB

Статус: проверено
Скачан: 0 раз
Размер: 209 MB
terms.php



Быстрый ответ

Имя:

      
Для отправки сообщений необходимо включить JavaScript
Показать сообщения:    

Текущее время: 10-Дек 00:15

Часовой пояс: UTC + 3


Вы можете начинать темы
Вы можете отвечать на сообщения
Вы не можете редактировать свои сообщения
Вы не можете удалять свои сообщения
Вы не можете голосовать в опросах
Вы не можете прикреплять файлы к сообщениям
Вы можете скачивать файлы