(Opera) Hersant - Le Chateau des Carpathes (Valayre, Garcisanz, Bladin, Vanaud, Wilms - Orchestre Philharmonique de Montpellier, Robertson) - 2001, APE (image+.cue) lossless


 

[Цитировать]

Philippe Hersant - Le château des Carpathes
Жанр: Opera
Страна-производитель диска: France
Год издания диска: 2001
Издатель (лейбл): Accord
Номер по каталогу: 465 493-2
Дата записи: 1992
Аудиокодек: APE
Тип рипа: image+.cue
Битрейт аудио: lossless
Продолжительность: 51'40+33'01
Источник: собственный рип
Наличие сканов в содержимом раздачи: да
Треклист:
Disc 1
1. Prologue debut
2. Misera me
3. Van e il conforto
4. Interlude
5. Scene 1 debut
6. Quel secret
7. A l'heure ou les spectres
8. Oh stilla
Disc 2
1. Scene 2 air du baron
2. Monsieur le baron
3. Cinq ans
4. Van e il conforto
Исполнители:
Philippe Hersant - Le château des Carpathes
opéra en un prologue et deux scènes
Libretto: Jorge Silva-Melo, after Jules Verne
La Stilla - Sylvie Valayre, soprano
L'Aubergiste - Isabel Garcisanz, mezzo-soprano
Franz de Télek - Christer Bladin, tenor
Baron de Gorz - Marcel Vanaud, baritone
Orfanik - André Wilms, speaker
Orchestre Philharmonique de Montpellier
David Robertson (dirigent)

Лог создания рипа

CD1

Exact Audio Copy V1.0 beta 3 from 29. August 2011
EAC extraction logfile from 4. May 2015, 15:51
Hersant / Le Château des Carpathes, Robertson CD1
Used drive : TSSTcorpCDDVDW SE-208AB Adapter: 1 ID: 0
Read mode : Secure
Utilize accurate stream : Yes
Defeat audio cache : Yes
Make use of C2 pointers : No
Read offset correction : 6
Overread into Lead-In and Lead-Out : No
Fill up missing offset samples with silence : Yes
Delete leading and trailing silent blocks : No
Null samples used in CRC calculations : Yes
Used interface : Native Win32 interface for Win NT & 2000
Used output format : Monkey's Audio Lossless Encoder
Selected bitrate : High Lossless Compression
Quality : High
Add ID3 tag : Yes
Command line compressor : C:\Program Files (x86)\Exact Audio Copy\MAC\MAC.exe
TOC of the extracted CD
Track | Start | Length | Start sector | End sector
---------------------------------------------------------
1 | 0:00.00 | 2:56.53 | 0 | 13252
2 | 2:56.53 | 1:45.35 | 13253 | 21162
3 | 4:42.13 | 10:25.32 | 21163 | 68069
4 | 15:07.45 | 4:01.05 | 68070 | 86149
5 | 19:08.50 | 10:32.08 | 86150 | 133557
6 | 29:40.58 | 6:55.45 | 133558 | 164727
7 | 36:36.28 | 7:41.47 | 164728 | 199349
8 | 44:18.00 | 9:04.55 | 199350 | 240204
Range status and errors
Selected range
Filename D:\EAC\Hersant - Le Château des Carpathes, Robertson CD1.wav
Peak level 89.6 %
Extraction speed 1.8 X
Range quality 100.0 %
Test CRC 91339171
Copy CRC 91339171
Copy OK
No errors occurred
AccurateRip summary
Track 1 accurately ripped (confidence 2) [56F73D1E] (AR v1)
Track 2 accurately ripped (confidence 2) [52C441EE] (AR v1)
Track 3 accurately ripped (confidence 2) [B72B2C54] (AR v1)
Track 4 accurately ripped (confidence 2) [77E726A2] (AR v1)
Track 5 accurately ripped (confidence 2) [93DB605F] (AR v1)
Track 6 accurately ripped (confidence 2) [CDBE2688] (AR v1)
Track 7 accurately ripped (confidence 2) [CCBE6B25] (AR v1)
Track 8 accurately ripped (confidence 2) [09C69CC8] (AR v1)
All tracks accurately ripped
End of status report
---- CUETools DB Plugin V2.1.3
[CTDB TOCID: qJ.D_AH27mDbqnd47q8S1kYkY18-] found, Submit result: qJ.D_AH27mDbqnd47q8S1kYkY18- has been confirmed
[332fd045] (1/1) Accurately ripped
==== Log checksum 042F99CA93A920B8D59F0F41152D62A8280650755A2228AD66CE966ECC7914A2 ====

CD2

Exact Audio Copy V1.0 beta 3 from 29. August 2011
EAC extraction logfile from 4. May 2015, 15:43
Hersant / Le Château des Carpathes, Robertson CD2
Used drive : TS8XDVDSTRANSCEND Adapter: 1 ID: 1
Read mode : Secure
Utilize accurate stream : Yes
Defeat audio cache : Yes
Make use of C2 pointers : No
Read offset correction : 6
Overread into Lead-In and Lead-Out : No
Fill up missing offset samples with silence : Yes
Delete leading and trailing silent blocks : No
Null samples used in CRC calculations : Yes
Used interface : Native Win32 interface for Win NT & 2000
Used output format : Monkey's Audio Lossless Encoder
Selected bitrate : High Lossless Compression
Quality : High
Add ID3 tag : Yes
Command line compressor : C:\Program Files (x86)\Exact Audio Copy\MAC\MAC.exe
TOC of the extracted CD
Track | Start | Length | Start sector | End sector
---------------------------------------------------------
1 | 0:00.00 | 10:30.23 | 0 | 47272
2 | 10:30.23 | 2:01.30 | 47273 | 56377
3 | 12:31.53 | 8:17.00 | 56378 | 93652
4 | 20:48.53 | 12:54.67 | 93653 | 151769
Range status and errors
Selected range
Filename D:\EAC\Hersant - Le Château des Carpathes, Robertson CD2.wav
Peak level 99.9 %
Extraction speed 1.6 X
Range quality 100.0 %
Test CRC D7116BAE
Copy CRC D7116BAE
Copy OK
No errors occurred
AccurateRip summary
Track 1 cannot be verified as accurate (confidence 1) [4A9902D3], AccurateRip returned [F3295FD6] (AR v2)
Track 2 cannot be verified as accurate (confidence 2) [2B1A1ECB], AccurateRip returned [BEF0B430] (AR v2)
Track 3 cannot be verified as accurate (confidence 2) [798923B2], AccurateRip returned [3CEE05D5] (AR v2)
Track 4 cannot be verified as accurate (confidence 2) [1CDEA73C], AccurateRip returned [8E086AC8] (AR v2)
No tracks could be verified as accurate
You may have a different pressing from the one(s) in the database
End of status report
---- CUETools DB Plugin V2.1.3
[CTDB TOCID: AQasZMU7qCCR0Qy1ZOfTO5c638Q-] found, Submit result: unrecognized or virtual drive
[5a09f68d] (1/1) Accurately ripped
==== Log checksum 350EBE8A0C3B619385A68B54495CFD9F989A9AB987D309E54023CB4F3AED9BF9 ====

Содержание индексной карты (.CUE)

CD1

REM GENRE Opera
REM DATE 1992
REM DISCID 6D0C8208
REM COMMENT "ExactAudioCopy v1.0b3"
PERFORMER "Hersant"
TITLE "Le Château des Carpathes, Robertson CD1"
FILE "Hersant - Le Château des Carpathes, Robertson CD1.ape" WAVE
TRACK 01 AUDIO
TITLE "PROLOGUE"
PERFORMER "Hersant"
ISRC FRZ129202820
INDEX 01 00:00:00
TRACK 02 AUDIO
TITLE "Misera me..."
PERFORMER "Hersant"
ISRC FRZ129202830
INDEX 01 02:56:53
TRACK 03 AUDIO
TITLE "Van è il conforto..."
PERFORMER "Hersant"
ISRC FRZ129202840
INDEX 00 04:41:03
INDEX 01 04:42:13
TRACK 04 AUDIO
TITLE "INTERLUDE"
PERFORMER "Hersant"
ISRC FRZ129202850
INDEX 01 15:07:45
TRACK 05 AUDIO
TITLE "SCENE 1"
PERFORMER "Hersant"
ISRC FRZ129202860
INDEX 01 19:08:50
TRACK 06 AUDIO
TITLE "Quel secret..."
PERFORMER "Hersant"
ISRC FRZ129202870
INDEX 01 29:40:58
TRACK 07 AUDIO
TITLE "A l'heure où les spectres..."
PERFORMER "Hersant"
ISRC FRZ129202870
INDEX 01 36:36:28
TRACK 08 AUDIO
TITLE "Oh Stilla..."
PERFORMER "Hersant"
ISRC FRZ129202890
INDEX 01 44:18:00

CD2

REM GENRE Opera
REM DATE 1992
REM DISCID 2407E704
REM COMMENT "ExactAudioCopy v1.0b3"
PERFORMER "Hersant"
TITLE "Le Château des Carpathes, Robertson CD2"
FILE "Hersant - Le Château des Carpathes, Robertson CD2.ape" WAVE
TRACK 01 AUDIO
TITLE "SCENE 2 Air du baron"
PERFORMER "Hersant"
ISRC FRZ129202900
INDEX 01 00:00:00
TRACK 02 AUDIO
TITLE "Monsieur le Baron"
PERFORMER "Hersant"
ISRC FRZ129202910
INDEX 01 10:30:23
TRACK 03 AUDIO
TITLE "Cinq ans..."
PERFORMER "Hersant"
ISRC FRZ129202920
INDEX 01 12:31:53
TRACK 04 AUDIO
TITLE "Van è il conforto..."
PERFORMER "Hersant"
ISRC FRZ129202930
INDEX 01 20:48:53



Показать сообщения:    

Текущее время: 11-Дек 16:53

Часовой пояс: UTC + 3


Вы не можете начинать темы
Вы не можете отвечать на сообщения
Вы не можете редактировать свои сообщения
Вы не можете удалять свои сообщения
Вы не можете голосовать в опросах
Вы не можете прикреплять файлы к сообщениям
Вы не можете скачивать файлы