[TR24][SM][OF] J.S. Bach - Passio secundum Johannem - Philippe Pierlot & Ricercar Consort - 2011 (Classical)


Статистика раздачи [Обновить пиров]
Размер:  1.78 GB   |    Зарегистрирован:  8 месяцев 15 дней   |    Скачан:  0 раз

Полного источника не было: Никогда

 
   
 
 
 

[Цитировать]

·
·
·Johann Sebastian Bach (1685-1750)Жанр: Choral
Носитель: Official Digital Download
Год издания диска: 2011
Издатель(лейбл): © Mirare
Номер по каталогу: MIR 136
Продолжительность: 01:53:31
Наличие сканов в содержимом раздачи: cover & booklet
Контейнер: FLAC (*.flac)
Разрядность: 24/88,2
Количество каналов: 2.0
Формат: tracks
Источник: qobuz.com
Pелизер: WEB (thanks to the original customer)

Harmonia Mundi Label Group

Треклист

St. John Passion, BWV 245 (1724/1725 version)
Première partie / Erster Teil / Part One
01 Coro. Herr, unser Herrscher 8'12
02 Recitativo. Jesus ging mit seinen Jüngern - Coro. Jesum von Nazareth - Recitativo. Jesus spricht zu ihnen - Coro. Jesum von Nazareth - Recitativo. Jesus antwortete 2'14
03 Choral. O große Lieb 0'47
04 Recitativo. Auf dass das Wort erfüllet wurde 0'59
05 Choral. Dein Will gescheh 0'46
06 Recitativo. Die Schar aber und der Oberhauptmann 0'39
07 Aria Alto. Von den Stricken meiner Sünden 4'20
08 Recitativo. Simon Petrus aber folgete Jesu 0'13
09 Aria Soprano. Ich folge dir gleichfalls 3'41
10 Recitativo. Derselbige Jünger 2'57
11 Choral. Wer hat dich so geschlagen 1'29
12 Aria Basso e Soprano. Himmel reiße, Welt erbebe 3'42
13 Recitativo. Und Hannas sandte ihn - Coro. Bist du nicht seiner Jünger einer? - Recitativo. Er leugnete aber und sprach 1'58
14 Aria Tenore. Ach, mein Sinn 2'28
15 Choral. Petrus, der nicht denkt zurück 1'18
Deuxième partie / Zweiter Teil / Part Two
01 Choral. Christus, der uns selig macht 1'00
02 Recitativo. Da führeten sie Jesum von Kaiphas - Coro. Wäre dieser nicht ein Übeltäter Recitativo. Da sprach Pilatus zu ihnen - Coro. Wir dürfen niemand töten - Recitativo. Auf dass erfüllet würde das Wort Jesu 3'55
03 Choral. Ach großer König 1'20
04 Recitativo. Da sprach Pilatus zu ihm - Coro. Nicht diesen, sondern Barrabam - Recitativo. Barrabas aber war ein Mörder 2'00
05 Arioso Basso. Betrachte, mein Seel 2'19
06 Aria Tenore. Erwäge, wie sein blutgefärbter Rücken 7'47
07 Recitativo. Und die Kriegsknechte flochten - Coro. Sei gegrüßet, lieber Jüdenkönig - Recitativo. Und gaben ihm Backenstreiche - Coro. Kreuzige ! - Recitativo. Pilatus sprach zu ihnen - Coro. Wir haben ein Gesetz - Recitativo. Da Pilatus das Wort hörete 5'13
08 Choral. Durch dein Gefängnis 0'48
09 Recitativo. Die Jüden aber schrieen - Coro. Lässest du diesen los - Recitativo. Da Pilatus das Wort hörete - Coro. Weg, weg mit dem - Recitativo. Spricht Pilatus zu ihnen - Coro. Wir haben keinen König - Recitativo. Da überantwortete er ihn 3'50
10 Aria Basso e Coro. Eilt, ihr angefochtnen Seelen 3'46
11 Recitativo. Allda kreuzigten sie ihn - Coro. Schreibe nicht - Recitativo. Pilatus antwortet 2'01
12 Choral. In meines Herzens Grunde 0'58
13 Recitativo. Die Kriegsknechte aber - Coro. Lasset uns den nicht zerteilen - Recitativo. Auf dass erfüllet würde die Schrift 3'44
14 Choral. Er nahm alles wohl in acht 1'02
15 Recitativo. Und von Stund an 1'29
16 Aria Alto. Es ist vollbracht 5'10
17 Recitativo. Und neiget das Haupt 0'23
18 Aria Basso e Coro. Mein teurer Heiland 4'21
19 Recitativo. Und siehe da 0'25
20 Arioso Tenore. Mein Herz, in dem die ganze Welt 0'52
21 Aria Soprano. Zerfließe, mein Herze 7'00
22 Recitativo. Die Jüden aber 1'58
23 Choral. O hilf, Christe, Gottes Sohn 0'59
24 Recitativo. Darnach bat Pilatum 1'55
25 Coro. Ruht wohl, ihr heiligen Gebeine 6'55
26 Choral. Christe, du Lamm Gottes 4'24
27 Choral. Ach Herr, lass dein lieb Engelein 1'48 (alternative)

Исполнители

Maria Keohane, soprano (aria 9, Ancilla, aria 35)
Helena Ek, soprano
Carlos Mena, alto (aria 7, 30)
Jan Börner, alto
Hans-Jörg Mammel, ténor (Evangelist, aria 13)
Jan Kobow, ténor (Servus, aria 20, arioso 34)
Matthias Vieweg, basse (Jesus)
Stephan MacLeod, basse (aria 11, arioso 19, aria 24, 32, Petrus, Pilatus)
Ricercar Consort
Philippe Pierlot, direction
Sophie Gent, violon conducteur et viole d’amour
Gabriel Grosbard, Sandrine Dupé, Anne Pekkala, Maia Silberstein,
Guya Martinini, Jin Kim, violons
Mika Akiha, Michiyo Kondo, altos
Rainer Zipperling, Julie Borsodi, violoncelles
Frank Coppieters, violone
François Fernandez, viole d’amour
Eduardo Egüez, luth
Philippe Pierlot, viole de gambe
Marc Hantaï, Georges Barthel, flûtes
Emmanuel Laporte, Jean-Marc Philippe, hautbois, hautbois da caccia
Alain De Rijckere, Lisa Goldberg, bassons
François Guerrier, clavecin
Francis Jacob, orgue

Dynamic Range Meter

foobar2000 1.2.6 / Dynamic Range Meter 1.1.1
log date: 2015-05-15 22:55:55
--------------------------------------------------------------------------------
Analyzed: Maria Keohane, soprano - Helena Ek, soprano - Carlos Mena, alto - Jan Börner, alto - Hans-Jörg Mammel, tenor - Jan Kobow, tenor - Matthias Vieweg, bass - Stephan MacLeod, bass - Ricercar Consort - Philippe Pierlot, conductor / Ricercar Consort / Philippe Pierlot : Bach : Passio secundum Johannem (St. John Passion)
--------------------------------------------------------------------------------
DR Peak RMS Duration Track
--------------------------------------------------------------------------------
DR16 -0.70 dB -21.34 dB 8:13 01-Passion selon saint Jean, BWV 245:Première partie / Erster Teil / Part One Coro. Herr, unser Herrscher
DR14 -3.88 dB -24.30 dB 2:15 02-Passion selon saint Jean, BWV 245:Recitativo. Jesus ging mit seinen Jüngern Coro. Jesum von Nazareth Recitativo. Jesus spricht zu ihne
DR11 -7.36 dB -23.07 dB 0:47 03-Passion selon saint Jean, BWV 245:Choral. O große Liebe
DR13 -8.71 dB -26.75 dB 1:00 04-Passion selon saint Jean, BWV 245:Recitativo. Auf dass das Wort erfüllet würde
DR12 -6.88 dB -23.24 dB 0:47 05-Passion selon saint Jean, BWV 245:Choral. Dein Will gescheh
DR14 -9.69 dB -28.60 dB 0:39 06-Passion selon saint Jean, BWV 245:Recitativo. Die Schar aber und der Oberhauptmann
DR15 -7.05 dB -25.54 dB 4:20 07-Passion selon saint Jean, BWV 245:Aria Alto. Von den Stricken meiner Sünden
DR9 -11.81 dB -30.65 dB 0:13 08-Passion selon saint Jean, BWV 245:Recitativo. Simon Petrus aber folgete Jesu
DR15 -4.01 dB -24.50 dB 3:42 09-Passion selon saint Jean, BWV 245:Aria Soprano. Ich folge dir gleichfalls
DR16 -5.02 dB -26.77 dB 2:57 10-Passion selon saint Jean, BWV 245:Recitativo. Derselbige Jünger
DR12 -5.78 dB -22.42 dB 1:30 11-Passion selon saint Jean, BWV 245:Choral. Wer hat dich so geschlagen
DR13 -5.61 dB -23.25 dB 3:42 12-Passion selon saint Jean, BWV 245:Aria Basso e Soprano. Himmel reiße, Welt erbebe
DR14 -6.52 dB -25.55 dB 1:59 13-Passion selon saint Jean, BWV 245:Recitativo. Und Hannas sandte ihn
DR14 -4.57 dB -22.85 dB 2:29 14-Passion selon saint Jean, BWV 245:Aria Tenore. Ach, mein Sinn
DR11 -6.06 dB -23.45 dB 1:18 15-Passion selon saint Jean, BWV 245:Choral. Petrus, der nicht denkt zurück
--------------------------------------------------------------------------------
Number of tracks: 15
Official DR value: DR13
Samplerate: 88200 Hz
Channels: 2
Bits per sample: 24
Bitrate: 2124 kbps
Codec: FLAC
================================================================================
foobar2000 1.2.6 / Dynamic Range Meter 1.1.1
log date: 2015-05-15 23:12:25
--------------------------------------------------------------------------------
Analyzed: Maria Keohane, soprano - Helena Ek, soprano - Carlos Mena, alto - Jan Börner, alto - Hans-Jörg Mammel, tenor - Jan Kobow, tenor - Matthias Vieweg, bass - Stephan MacLeod, bass - Ricercar Consort - Philippe Pierlot, conductor / Ricercar Consort / Philippe Pierlot : Bach : Passio secundum Johannem (St. John Passion)
--------------------------------------------------------------------------------
DR Peak RMS Duration Track
--------------------------------------------------------------------------------
DR13 -1.76 dB -19.47 dB 1:01 01-Passion selon saint Jean, BWV 245:Choral. Christus, der uns selig macht
DR14 -1.27 dB -20.50 dB 3:56 02-Passion selon saint Jean, BWV 245:Recitativo. Da führeten sie Jesum von Kaiphas
DR12 -3.96 dB -21.95 dB 1:21 03-Passion selon saint Jean, BWV 245:Choral. Ach großer König
DR15 -2.58 dB -23.19 dB 2:01 04-Passion selon saint Jean, BWV 245:Recitativo. Da sprach Pilatus zu ihm
DR14 -12.62 dB -31.27 dB 2:20 05-Passion selon saint Jean, BWV 245:Arioso Basso. Betrachte, mein Seel
DR13 -13.24 dB -29.71 dB 7:48 06-Passion selon saint Jean, BWV 245:Aria Tenore. Erwäge, wie sein blutgefärbter Rücken
DR14 -2.89 dB -21.46 dB 5:13 07-Passion selon saint Jean, BWV 245:Recitativo. Und die Kriegsknechte flochten
DR12 -3.16 dB -21.44 dB 0:48 08-Passion selon saint Jean, BWV 245:Choral. Durch dein Gefängnis
DR14 -2.83 dB -21.31 dB 3:50 09-Passion selon saint Jean, BWV 245:Recitativo. Die Jüden aber schrieen
DR15 -4.46 dB -24.53 dB 3:47 10-Passion selon saint Jean, BWV 245:Aria Basso e Coro. Eilt, ihr angefochtnen Seelen
DR13 -4.73 dB -23.80 dB 2:01 11-Passion selon saint Jean, BWV 245:Recitativo. Allda kreuzigten sie ihn
DR12 -4.17 dB -22.14 dB 0:59 12-Passion selon saint Jean, BWV 245:Choral. In meines Herzens Grunde
DR14 -4.20 dB -25.24 dB 3:44 13-Passion selon saint Jean, BWV 245:Recitativo. Die Kriegsknechte aber
DR11 -6.43 dB -22.60 dB 1:03 14-Passion selon saint Jean, BWV 245:Choral. Er nahm alles wohl in acht
DR13 -11.80 dB -31.28 dB 1:30 15-Passion selon saint Jean, BWV 245:Recitativo. Und von Stund an
DR16 -8.36 dB -30.33 dB 5:11 16-Passion selon saint Jean, BWV 245:Aria Alto. Es ist vollbracht
DR8 -20.77 dB -39.00 dB 0:28 17-Passion selon saint Jean, BWV 245:Recitativo. Und neiget das Haupt
DR14 -9.13 dB -27.54 dB 4:20 18-Passion selon saint Jean, BWV 245:Aria Basso e Coro. Mein teurer Heiland
DR12 -6.81 dB -22.41 dB 0:25 19-Passion selon saint Jean, BWV 245:Recitativo. Und siehe da
DR12 -11.27 dB -28.24 dB 0:52 20-Passion selon saint Jean, BWV 245:Arioso Tenore. Mein Herz, in dem die ganze Welt
DR14 -7.64 dB -27.75 dB 7:00 21-Passion selon saint Jean, BWV 245:Aria Soprano. Zerfließe, mein Herze
DR13 -10.70 dB -29.19 dB 1:58 22-Passion selon saint Jean, BWV 245:Recitativo. Die Jüden aber
DR11 -5.44 dB -21.99 dB 0:59 23-Passion selon saint Jean, BWV 245:Choral. O hilf, Christe, Gottes Sohn
DR14 -11.70 dB -30.37 dB 1:55 24-Passion selon saint Jean, BWV 245:Recitativo. Darnach bat Pilatum
DR14 -3.50 dB -24.55 dB 6:56 25-Passion selon saint Jean, BWV 245:Coro. Ruht wohl, ihr heiligen Gebeine
DR13 -0.11 dB -20.48 dB 1:49 26-Passion selon saint Jean, BWV 245:Choral. Christe, du Lamm Gottes
DR12 -7.44 dB -26.96 dB 4:24 27-Passion selon saint Jean, BWV 245:Choral. Ach Herr, lass dein lieb Engelein
--------------------------------------------------------------------------------
Number of tracks: 27
Official DR value: DR13
Samplerate: 88200 Hz
Channels: 2
Bits per sample: 24
Bitrate: 2184 kbps
Codec: FLAC
================================================================================
[teatrix.ru].t21172.torrent 
Торрент: Зарегистрирован [ 2016-03-20 00:51 ] · F9D7786B4DD01C143A11E35764F15283C884F41E

Скачать .torrent

Скачать

23 KB

Статус: проверено
Скачан: 0 раз
Размер: 1.78 GB
terms.php



Быстрый ответ

Имя:

      
Для отправки сообщений необходимо включить JavaScript
Показать сообщения:    

Текущее время: 04-Дек 06:55

Часовой пояс: UTC + 3


Вы можете начинать темы
Вы можете отвечать на сообщения
Вы не можете редактировать свои сообщения
Вы не можете удалять свои сообщения
Вы не можете голосовать в опросах
Вы не можете прикреплять файлы к сообщениям
Вы можете скачивать файлы