Последний урок Евгения Березняка (Алексей Зотиков) [2014, документальный, биография, SATRip]


Статистика раздачи [Обновить пиров]
Размер:  366 MB   |    Зарегистрирован:  8 месяцев 13 дней   |    Скачан:  0 раз

Полного источника не было: Никогда

 
   
 
 
 

[Цитировать]

Последний урок Евгения Березняка
Дата/Год выпуска: 2014
Страна: Украина, "Патерик-фильм"
Жанр: Документальный, биография
Продолжительность: 00:28:22
Язык: Русский
Режиссер: Алексей Зотиков
Описание: Фильм повествует о не рассказанных подробностях спасения в 1944 году города Кракова Евгением Березняком, разведчиком из Днепропетровска, который стал прообразом легендарного киногероя – майор Вихря. Юлиан Семенов, который написал сценарий «Майор Вихрь» дал только часть информации о подвиге. В фильме показаны неизвестные страницы жизни Героя и его Подвига. В феврале 2014 года Евгению Березняку должно было исполниться 100 лет. Евгений Степанович не дожил три месяца до своего столетнего юбилея...
Этот фильм о вечных ценностях, об истории, которую невозможно переписать. О беззаветной любви к Родине и чувстве долга. Создатели фильма проследили жизненный путь легендарного разведчика, чтобы рассказать нынешним и будущим поколениям украинцев, которые стремятся в Европу о человеке, благодаря которому уцелел уникальный архитектурный ансамбль польского города Краков. Причем сам Евгений Березняк при жизни говорил, что Краков спасли от разрушения войска Советской Армии. "А наша группа "Голос" была частью этой армии", - рассказал Березняк создателям фильма.
Сэмпл: http://multi-up.com/1048731
качество: SATRip
формат: AVI
Видео: XviD 73, 720x400 (16:9), 25.000 fps, 1600 kbps avg
Аудио: Русский AC3 Dolby Digital, 48 kHz, 2/0 (L,R) ch, 192.00 kbps avg

MediaInfo

General
Complete name : F:\Posledniy.urok.Evgeniya.Bereznyka_2014\Последний урок Евгения Березняка.avi
Format : AVI
Format/Info : Audio Video Interleave
File size : 366 MiB
Duration : 28mn 22s
Overall bit rate : 1 802 Kbps
Writing application : VirtualDubMod 1.5.10.3 | www.virtualdub-fr.org || (build 2550/release)
Writing library : VirtualDubMod build 2550/release
Video
ID : 0
Format : MPEG-4 Visual
Format profile : Advanced Simple@L5
Format settings, BVOP : 1
Format settings, QPel : No
Format settings, GMC : No warppoints
Format settings, Matrix : Default (MPEG)
Codec ID : XVID
Codec ID/Hint : XviD
Duration : 28mn 22s
Bit rate : 1 600 Kbps
Width : 720 pixels
Height : 400 pixels
Display aspect ratio : 16:9
Frame rate : 25.000 fps
Color space : YUV
Chroma subsampling : 4:2:0
Bit depth : 8 bits
Scan type : Progressive
Compression mode : Lossy
Bits/(Pixel*Frame) : 0.222
Stream size : 325 MiB (89%)
Writing library : XviD 73
Audio
ID : 1
Format : AC-3
Format/Info : Audio Coding 3
Mode extension : CM (complete main)
Format settings, Endianness : Big
Codec ID : 2000
Duration : 28mn 22s
Bit rate mode : Constant
Bit rate : 192 Kbps
Channel(s) : 2 channels
Channel positions : Front: L R
Sampling rate : 48.0 KHz
Bit depth : 16 bits
Compression mode : Lossy
Stream size : 39.0 MiB (11%)
Alignment : Split accross interleaves
Interleave, duration : 40 ms (1.00 video frame)
Interleave, preload duration : 500 ms

Скриншоты

[teatrix.ru].t21173.torrent 
Торрент: Зарегистрирован [ 2016-03-20 00:51 ] · 9996BE10725DB5589DC51D962E13B8D986D505D8

Скачать .torrent

Скачать

15 KB

Статус: проверено
Скачан: 0 раз
Размер: 366 MB
terms.php



Быстрый ответ

Имя:

      
Для отправки сообщений необходимо включить JavaScript
Показать сообщения:    

Текущее время: 02-Дек 23:08

Часовой пояс: UTC + 3


Вы можете начинать темы
Вы можете отвечать на сообщения
Вы не можете редактировать свои сообщения
Вы не можете удалять свои сообщения
Вы не можете голосовать в опросах
Вы не можете прикреплять файлы к сообщениям
Вы можете скачивать файлы