Кумиры экрана. Николай Крючков (Руслан Заварзин) [2000, Личности и кумиры, DVB]


Статистика раздачи [Обновить пиров]
Размер:  490 MB   |    Зарегистрирован:  10 месяцев   |    Скачан:  0 раз

Полного источника не было: Никогда

 
   
 
 
 

[Цитировать]

Кумиры экрана. Николай Крючков
Дата/Год выпуска: 2000
Страна: Россия
Жанр: Личности и кумиры
Продолжительность: 00:26:10
Перевод: Не требуется
Студия / издатель: ВТВ-сервис
Режиссер: Руслан Заварзин
Телеканал: Ретро
Описание: Родился 24 декабря 1910 (6 января 1911) года в Москве, в рабочей семье с Красной Пресни.Окончил ФЗУ (фабрично-заводское училище). До 1930 года работал гравёром-накатчиком на фабрике "Трёхгорной мануфактуры". Учился актёрскому мастерству при Московском центральном ТРАМе (Театр рабочей молодёжи), до 1933 года — актёр этого театра.
В 1934-1936 годах — актёр киностудии Межрабпомфильм (ныне — киностудия имени Горького), затем — Театра-студии киноактёра. Один из самых снимаемых актёров советского кино.Когда он явился в кинотеатр «Ударник» на первую в своей жизни кинопремьеру прямо с Москвы-реки после купания — в резиновых тапочках и с песком в волосах, — контролёры долго не пропускали: уж слишком не похож был парень на киноартиста. А похож он был на обычного зрителя, решившего прорваться в кино без билета. Шёл 1933 год, начиналось звуковое кино, и где было догадаться контролёрам, что отныне похожесть на рядового зрителя, прямое сходство с ним станут главным достоинством нового поколения киноартистов и никого так не полюбят зрители именно за эту похожесть благодарной верной любовью. Пожалуй, любому из этой плеяды легендарных зрительских любимцев Крючков уступает в филигранности мастерства, но именно он стал символом предвоенного времени, ибо растворился в нём без остатка. Время, а не режиссёры, открыло в нем своего идеального героя — идеального исполнителя велений того времени...
Доп. информация: "Кумиры экрана" - авторская передача Народной артистки СССР Клары Лучко, выступающей в роли ведущей.
Сэмпл: https://www.sendspace.com/file/c7a6ly
качество: DVB
формат: MPG
Видео: MPEG2, 720:576 (4:3), 2375 Кбит/сек, 25,000 кадров/сек
Аудио: MP2, 192 Кбит/сек, 48,0 КГц, 2 канала

MediaInfo

Общее
Полное имя : Кумиры экрана Крючков .mpg
Формат : MPEG-PS
Размер файла : 490 Мбайт
Продолжительность : 26 м.
Режим общего битрейта : Переменный
Общий поток : 2619 Кбит/сек
Видео
Идентификатор : 224 (0xE0)
Формат : MPEG Video
Версия формата : Version 2
Профиль формата : Main@Main
Параметр BVOP формата : Да
Параметр матрицы формата : Выборочная
Параметр GOP формата : M=3, N=12
Продолжительность : 26 м.
Вид битрейта : Переменный
Битрейт : 2375 Кбит/сек
Максимальный битрейт : 10000 Кбит/сек
Ширина : 720 пикселей
Высота : 576 пикселей
Соотношение сторон : 4:3
Частота кадров : 25,000 кадров/сек
Стандарт вещания : PAL
Цветовое пространство : YUV
Субдискретизация насыщенности : 4:2:0
Битовая глубина : 8 бит
Тип развёртки : Чересстрочная
Порядок развёртки : Верхнее поле первое
Метод сжатия : С потерями
Бит/(Пиксели*Кадры) : 0.229
Временной код первого кадра : 00:00:00:00
Оригинал временного кода : Group of pictures header
Размер потока : 445 Мбайт (91%)
Аудио
Идентификатор : 192 (0xC0)
Формат : MPEG Audio
Версия формата : Version 1
Профиль формата : Layer 2
Продолжительность : 26 м.
Вид битрейта : Постоянный
Битрейт : 192 Кбит/сек
Каналы : 2 канала
Частота : 48,0 КГц
Метод сжатия : С потерями
Задержка видео : 20 мс.
Размер потока : 35,9 Мбайт (7%)

Скриншоты

Запись потока *.ts произведена тюнером цифрового телевидения. В связи с тем, что не все плееры воспроизводят поток *.ts (MPEG-TS) , в данном видеофайле мной был сделан ремукс потока *.ts (MPEG-TS) в *.mpg (MPEG-PS) программой VideoReDo.
[teatrix.ru].t21174.torrent 
Торрент: Зарегистрирован [ 2016-03-20 00:51 ] · C7FABD779E752A80794466E67B9C821E1C797DE5

Скачать .torrent

Скачать

20 KB

Статус: проверено
Скачан: 0 раз
Размер: 490 MB
terms.php



Быстрый ответ

Имя:

      
Для отправки сообщений необходимо включить JavaScript
Показать сообщения:    

Текущее время: 20-Янв 16:58

Часовой пояс: UTC + 3


Вы можете начинать темы
Вы можете отвечать на сообщения
Вы не можете редактировать свои сообщения
Вы не можете удалять свои сообщения
Вы не можете голосовать в опросах
Вы не можете прикреплять файлы к сообщениям
Вы можете скачивать файлы