(Opera, Vocal) Simon Keenlyside - Tales of Opera (Baritone Arias by Mozart, Rossini, Verdi, Bellini, Cilea, Leoncavallo, Massenet, Thomas, Wagner, Чайковский) - 2006, APE (image+.cue), lossless


 

[Цитировать]

Simon Keenlyside - Tales of Opera (Baritone Arias by Mozart, Rossini, Verdi, Bellini, Cilea, Leoncavallo, Massenet, Thomas, Wagner, Чайковский)
Жанр: Opera, Vocal
Страна-производитель диска: CША
Год издания диска: 2006
Издатель (лейбл): Sony Classical
Аудиокодек: APE
Тип рипа: image+.cue
Битрейт аудио: lossless
Продолжительность: 70:12
Источник: релизер (Ice)
Наличие сканов в содержимом раздачи: да
Треклист:
Gioacchino Rossini
1. Il barbiere di Siviglia: "Largo al factotum della citta" [0:05:01.72];
2. Guillame Tell: "Sois immobile" [0:02:31.21];
3. Jules Massenet - Herodiade: "Vision fugitive" [0:04:28.52];
Giuseppe Verdi
4. Don Carlo: "Per me guinto e il di'' [0:08:22.37];
5. Un ballo in maschera: "Eri tu che macchiavi quell' anima" [0:06:06.03];
6. La Traviata - "Di provenza il mar'' [0:04:21.26];
7. Ambroise ThomasHamlet: ''O vin, dissipe la tristesse" [0:03:58.55];
8. Vincenzo Bellini - I Puritani: "Ah! per sempre io ti perdei" [0:05:27.33];
9. W. A. Mozart - Zauberflote: "Ein madchen oder weibchen" [0:04:12.69];
10. Ruggiero Leoncavallo - Pagliacci: "Si puo, si puo" [0:05:29.18];
11. Francesco Cilea - L'Arlesiana: "Come due tizzi accesi" [0:03:42.17];
12. Peter Tchaikovsky - Pique dame: "Ja vas ljublju" [0:04:55.05];
W. A. Mozart
13. Don Giovanni: "Dah vieni alla finestra" [0:02:14.47];
14. Zaide: "Nur mutig, mein herze, versuche dein gluck" [0:05:27.35];
15. Richard WagnerTannhauser: "Oh, du mein holder abendstern" [0:05:14.08].
Исполнители:
Simon Keenlyside, baritone,
Münchner Rundfunkorchester,
Ulf Schirmer, Conductor.
Recorded at Bayerischer Rundfunk, Munich, May, 29 - June, 02, 2006.

Лог создания рипа

Exact Audio Copy V0.99 prebeta 4 from 23. January 2008
EAC extraction logfile from 21. April 2008, 4:07
Simon Keenlyside / Tales of Opera
Used drive : PLEXTOR DVDR PX-760A Adapter: 2 ID: 0
Read mode : Secure
Utilize accurate stream : Yes
Defeat audio cache : Yes
Make use of C2 pointers : No
Read offset correction : 6
Overread into Lead-In and Lead-Out : No
Fill up missing offset samples with silence : Yes
Delete leading and trailing silent blocks : No
Null samples used in CRC calculations : Yes
Used interface : Native Win32 interface for Win NT & 2000
Used output format : Monkey's Audio Lossless Encoder v3.99 DLL
Sample format : High Lossless Compression
TOC of the extracted CD
Track | Start | Length | Start sector | End sector
---------------------------------------------------------
1 | 0:00.00 | 5:01.72 | 0 | 22646
2 | 5:01.72 | 2:31.21 | 22647 | 33992
3 | 7:33.18 | 4:28.52 | 33993 | 54144
4 | 12:01.70 | 8:22.37 | 54145 | 91831
5 | 20:24.32 | 6:06.03 | 91832 | 119284
6 | 26:30.35 | 4:21.26 | 119285 | 138885
7 | 30:51.61 | 3:58.55 | 138886 | 156790
8 | 34:50.41 | 5:27.33 | 156791 | 181348
9 | 40:17.74 | 4:12.69 | 181349 | 200317
10 | 44:30.68 | 5:29.18 | 200318 | 225010
11 | 50:00.11 | 3:42.17 | 225011 | 241677
12 | 53:42.28 | 4:55.05 | 241678 | 263807
13 | 58:37.33 | 2:14.47 | 263808 | 273904
14 | 60:52.05 | 5:27.35 | 273905 | 298464
15 | 66:19.40 | 5:14.08 | 298465 | 322022
Range status and errors
Selected range
Filename F:\UPS\SK.ToO.MR.US\Simon Keenlyside - Tales of Opera.ape
Peak level 100.0 %
Range quality 100.0 %
Copy CRC 7BDE4124
Copy OK
No errors occurred
End of status report

Содержание индексной карты (.CUE)

REM DISCID C610C50F
REM COMMENT "ExactAudioCopy v0.99pb4"
PERFORMER "Simon Keenlyside "
TITLE "Tales of Opera"
FILE "Simon Keenlyside - Tales of Opera.ape" WAVE
TRACK 01 AUDIO
TITLE "Largo al factotum della citta"
PERFORMER "Simon Keenlyside "
FLAGS DCP
INDEX 01 00:00:00
TRACK 02 AUDIO
TITLE "Sois immobile"
PERFORMER "Simon Keenlyside "
FLAGS DCP
INDEX 00 04:55:73
INDEX 01 05:01:72
TRACK 03 AUDIO
TITLE "Vision fugitive"
PERFORMER "Simon Keenlyside "
FLAGS DCP
INDEX 00 07:27:19
INDEX 01 07:33:18
TRACK 04 AUDIO
TITLE "Per me guinto e il di "
PERFORMER "Simon Keenlyside "
FLAGS DCP
INDEX 00 11:55:71
INDEX 01 12:01:70
TRACK 05 AUDIO
TITLE "Eri tu che macchiavi quell' anima"
PERFORMER "Simon Keenlyside "
FLAGS DCP
INDEX 00 20:18:34
INDEX 01 20:24:32
TRACK 06 AUDIO
TITLE "Di provenza il mar"
PERFORMER "Simon Keenlyside "
FLAGS DCP
INDEX 00 26:24:36
INDEX 01 26:30:35
TRACK 07 AUDIO
TITLE "O vin, dissipe la tristesse"
PERFORMER "Simon Keenlyside "
FLAGS DCP
INDEX 00 30:45:62
INDEX 01 30:51:61
TRACK 08 AUDIO
TITLE "Ah! Per sempre io ti perdei"
PERFORMER "Simon Keenlyside "
FLAGS DCP
INDEX 00 34:44:43
INDEX 01 34:50:41
TRACK 09 AUDIO
TITLE "Ein Madchen oder Weibchen"
PERFORMER "Simon Keenlyside "
FLAGS DCP
INDEX 00 40:12:01
INDEX 01 40:17:74
TRACK 10 AUDIO
TITLE "Si puo, si puo"
PERFORMER "Simon Keenlyside "
FLAGS DCP
INDEX 00 44:24:70
INDEX 01 44:30:68
TRACK 11 AUDIO
TITLE "Come due tizzi accesi"
PERFORMER "Simon Keenlyside "
FLAGS DCP
INDEX 00 49:54:12
INDEX 01 50:00:11
TRACK 12 AUDIO
TITLE "Ja vas ljublju"
PERFORMER "Simon Keenlyside "
FLAGS DCP
INDEX 00 53:36:29
INDEX 01 53:42:28
TRACK 13 AUDIO
TITLE "Dah vieni alla finestra"
PERFORMER "Simon Keenlyside "
FLAGS DCP
INDEX 00 58:31:35
INDEX 01 58:37:33
TRACK 14 AUDIO
TITLE "Nur mutig, mein Herze, versuche dein Gluck"
PERFORMER "Simon Keenlyside "
FLAGS DCP
INDEX 00 60:46:07
INDEX 01 60:52:05
TRACK 15 AUDIO
TITLE "Oh, du mein holder Abendstern"
PERFORMER "Simon Keenlyside "
FLAGS DCP
INDEX 00 66:13:41
INDEX 01 66:19:40



Показать сообщения:    

Текущее время: 08-Дек 23:11

Часовой пояс: UTC + 3


Вы не можете начинать темы
Вы не можете отвечать на сообщения
Вы не можете редактировать свои сообщения
Вы не можете удалять свои сообщения
Вы не можете голосовать в опросах
Вы не можете прикреплять файлы к сообщениям
Вы не можете скачивать файлы