(Opera, Vocal) Jonas Kaufmann - Romantic Arias (Operatic Tenor Scenes by Verdi, Puccini, Bizet, Massenet, Gounod, Berlioz, Wagner, Flotow), Marco Armiliato - 2008, FLAC (image+.cue), lossless


 

[Цитировать]

Jonas Kaufmann - Romantic Arias (Operatic Tenor Scenes by Verdi, Puccini, Bizet, Massenet, Gounod, Berlioz, Wagner, Flotow)
Жанр: Opera, Vocal
Страна-производитель диска: CША
Год издания диска: 2008
Издатель (лейбл): DECCA
Дата записи: 2007
Аудиокодек: FLAC
Тип рипа: image+.cue
Битрейт аудио: lossless
Продолжительность: 65:09
Источник: релизер (Ice)
Наличие сканов в содержимом раздачи: да
Треклист:
1. Giacomo Puccini - La Boheme, Act 1: "Che gelida manina" [05:07];
2. Georges Bizet - Carmen, Act 2: "La fleur que tu m'avais jetée" [04:21];
3.Friedrich von Flotow - Martha (sung in German), Act 3: "Ach, so fromm" [03:23];
4. Giacomo Puccini - Tosca, Act 3: "E lucevan le stelle" [03:21];
5. Giuseppe Verdi - Don Carlo, Act 1: "Io l'ho perduta... Io la vidi, a suo sorriso" [03:42];
6. Carl Maria von Weber - Der Freischütz, Act 1: "Nein, länger trag' ich nicht die Quälen" - "Durch die Wälder, durch die Auen" [07:03];
7. Giuseppe Verdi - La traviata, Act 2: "Lunge da lei... De miei bollenti spiriti... O mio rimorso" [07:25];
8. Jules Massenet - Manon, Act 3: "Je suis seul... Ah, fuyez, douce image" [05:17];
9. Giuseppe Verdi - Rigoletto, Act 2: "Ella mi fu rapita... Parmi veder le lagrime" [05:27];
10. Charles Gounod - Faust, Act 3: "Quel trouble inconnu... Salut! Demeure chaste et pure" [06:14];
11. Richard Wagner - Die Meistersinger von Nürnberg, Act 3: "Morgenlich leuchtend" [05:16];
12. Hector Berlioz- La Damnation de Faust, Op.24, Part 4 - Scène 16: Invocation à la Nature "Nature immense" [05:21];
13. Jules Massenet - Werther, Act 3: "Pourquoi me réveiller, ô souffle du printemps?" [03:12].
Исполнители:
Jonas Kaufmann, tenor,
Jana Sibera, soprano (track 8),
Prague Philharmonic Orchestra,
Marco Armiliato, Conductor.
Recorded at Rudolfinum, Prague, August 2007.

Лог создания рипа

Exact Audio Copy V0.99 prebeta 5 from 4. May 2009
EAC extraction logfile from 23. September 2010, 15:45
Jonas Kaufmann / Romantic Arias
Used drive : Optiarc DVD RW AD-7585H Adapter: 0 ID: 1
Read mode : Secure
Utilize accurate stream : Yes
Defeat audio cache : No
Make use of C2 pointers : No
Read offset correction : 6
Overread into Lead-In and Lead-Out : No
Fill up missing offset samples with silence : Yes
Delete leading and trailing silent blocks : No
Null samples used in CRC calculations : Yes
Used interface : Native Win32 interface for Win NT & 2000
Used output format : Internal WAV Routines
Sample format : 44.100 Hz; 16 Bit; Stereo
TOC of the extracted CD
Track | Start | Length | Start sector | End sector
---------------------------------------------------------
1 | 0:00.00 | 5:06.68 | 0 | 23017
2 | 5:06.68 | 4:20.43 | 23018 | 42560
3 | 9:27.36 | 3:22.46 | 42561 | 57756
4 | 12:50.07 | 3:21.06 | 57757 | 72837
5 | 16:11.13 | 3:41.57 | 72838 | 89469
6 | 19:52.70 | 7:03.13 | 89470 | 121207
7 | 26:56.08 | 7:25.11 | 121208 | 154593
8 | 34:21.19 | 5:17.21 | 154594 | 178389
9 | 39:38.40 | 5:27.10 | 178390 | 202924
10 | 45:05.50 | 6:14.19 | 202925 | 230993
11 | 51:19.69 | 5:15.64 | 230994 | 254682
12 | 56:35.58 | 5:21.18 | 254683 | 278775
13 | 61:57.01 | 3:12.31 | 278776 | 293206
Range status and errors
Selected range
Filename E:\CDImages\Jonas Kaufmann - Romantic Arias.wav
Peak level 97.3 %
Range quality 100.0 %
Copy CRC B4038E02
Copy OK
No errors occurred
AccurateRip summary
Track 1 accurately ripped (confidence 25) [85F95E04]
Track 2 accurately ripped (confidence 25) [999E8A30]
Track 3 accurately ripped (confidence 25) [4E4B4878]
Track 4 accurately ripped (confidence 25) [44F138FC]
Track 5 accurately ripped (confidence 25) [302C29E8]
Track 6 accurately ripped (confidence 24) [8B60E1CF]
Track 7 accurately ripped (confidence 24) [5B585514]
Track 8 accurately ripped (confidence 23) [FDFAEC82]
Track 9 accurately ripped (confidence 24) [C25A7FDC]
Track 10 accurately ripped (confidence 23) [4FCD7522]
Track 11 accurately ripped (confidence 24) [1E40AC25]
Track 12 accurately ripped (confidence 23) [412A7900]
Track 13 accurately ripped (confidence 22) [9D8C9EB5]
All tracks accurately ripped
End of status report

Содержание индексной карты (.CUE)

REM GENRE Opera
REM DATE 2008
REM DISCID C10F450D
REM COMMENT "ExactAudioCopy v0.99pb5"
CATALOG 0028947599661
PERFORMER "Jonas Kaufmann"
TITLE "Romantic Arias"
FILE "Jonas Kaufmann - Romantic Arias.flac" WAVE
TRACK 01 AUDIO
TITLE "Che gelida manina [Puccini - La Boheme]"
PERFORMER "Jonas Kaufmann"
ISRC GAQL;0742400
INDEX 01 00:00:00
TRACK 02 AUDIO
TITLE "La fleur que tu m'avais jetee [Bizet - Carmen]"
PERFORMER "Jonas Kaufmann"
ISRC GAQL;0742310
INDEX 01 05:06:68
TRACK 03 AUDIO
TITLE "Ach! so fromm [Flotow - Martha]"
PERFORMER "Jonas Kaufmann"
ISRC GAQL;0742320
INDEX 01 09:27:36
TRACK 04 AUDIO
TITLE "E lucevan le stele [Puccini - Tosca]"
PERFORMER "Jonas Kaufmann"
ISRC GAQL;0742330
INDEX 01 12:50:07
TRACK 05 AUDIO
TITLE "Io l'ho perduta... Io la vidi, e il suo sorriso [Verdi - Don Carlo]"
PERFORMER "Jonas Kaufmann"
ISRC GAQL;0742330
INDEX 01 16:11:13
TRACK 06 AUDIO
TITLE "Nein, langer trag' ich nicht die Qualen [Weber - Der Freischutz]"
PERFORMER "Jonas Kaufmann"
ISRC GAQL;0742350
INDEX 01 19:52:70
TRACK 07 AUDIO
TITLE "Lunge da lei... De miei bollenti spiriti... Oh mio rimorso [Verdi - La Traviata]"
PERFORMER "Jonas Kaufmann"
ISRC GAQL;0742360
INDEX 01 26:56:08
TRACK 08 AUDIO
TITLE "Je suis seul!... Ah! Fuyez, douce image [Massenet - Manon]"
PERFORMER "Jonas Kaufmann"
ISRC GAQL;0742370
INDEX 01 34:21:19
TRACK 09 AUDIO
TITLE "Ella mi fu rapita!... Parmi veder le lagrime [Verdi - Rigoletto]"
PERFORMER "Jonas Kaufmann"
ISRC GAQL;0742380
INDEX 01 39:38:40
TRACK 10 AUDIO
TITLE "Quel trouble inconnu... Salut! demeure chaste et pure [Gounod - Faust]"
PERFORMER "Jonas Kaufmann"
ISRC GAQL;0742390
INDEX 01 45:05:50
TRACK 11 AUDIO
TITLE "Morgenlich leuchtend (Preislied) [Wagner - Die Meistersinger von Nurnberg]"
PERFORMER "Jonas Kaufmann"
ISRC GAQL;0742410
INDEX 01 51:19:69
TRACK 12 AUDIO
TITLE "Nature immense (Invocation a la Nature) [Berlioz - La damnation de Faust]"
PERFORMER "Jonas Kaufmann"
ISRC GAQL;0742420
INDEX 01 56:35:58
TRACK 13 AUDIO
TITLE "Toute mon ame est la!... Pourquoi me reveiller [Massenet - Werther]"
PERFORMER "Jonas Kaufmann"
ISRC GAQL;0742430
INDEX 01 61:57:01



Показать сообщения:    

Текущее время: 19-Янв 16:04

Часовой пояс: UTC + 3


Вы не можете начинать темы
Вы не можете отвечать на сообщения
Вы не можете редактировать свои сообщения
Вы не можете удалять свои сообщения
Вы не можете голосовать в опросах
Вы не можете прикреплять файлы к сообщениям
Вы не можете скачивать файлы