(Classical) [LP] [24/48] Andre Cluytens - Conductor - Из Сокровищницы Мирового Исполнительского Искусства (2LP) - 1980, FLAC (tracks+.cue)


Статистика раздачи [Обновить пиров]
Размер:  460 MB   |    Зарегистрирован:  8 месяцев 20 дней   |    Скачан:  0 раз

Полного источника не было: Никогда

 
   
 
 
 

[Цитировать]

Andre Cluytens - Conductor - Из Сокровищницы Мирового Исполнительского Искусства
Жанр: Classical
Носитель: LP
Год выпуска: 1980
Лейбл: Melodya (VSG)
Страна-производитель: USSR
Аудио кодек: FLAC
Тип рипа: tracks+.cue
Формат записи: 32/192
Формат раздачи: 24/48
Продолжительность: 1.31.13 min
Треклист:
Side One:
Georges Bizet
Symphony in C Major
01. Allegro vivo
02. Adagio
03. Allegro vivace
04. Allegro vivace
Side Two:
Hector Berlioz
05. 'Roman Carnival' Overture. Op. 9
Maurice Ravel
06. Rapsodie Espagnole
1.Prelude a la nuit
2.Malaguena
3.Habanera
4.Feria

Side Three:
Modest Mussorgsky
07. Night On The Bare Mountain
fantasia for symphony orchestra
08. Dawn On The Moskva River
introduction to the opera "Khovanshchina"
Edited and orchestrated by N. Rimsky-Korsakov

Side Four:
Igor Stravinsky
09. The Firebird - ballet suite
1.Introduction2.Dance of the Firebird
3.Round-Dance of the Princesses
4.Infernal Dance of the King Kashchei's Subjects
5.Lullaby
6.Finale

National Orchestra Of The French Radio And Television
Archive recordings of 1959 concerts
Источник оцифровки: автором раздачи
Код класса состояния винила: NM
Устройство воспроизведения: Электроника ЭП 017С
Головка звукоснимателя: Audio-Technica AT95
Предварительный усилитель: Бриг-001
АЦП: VIA HD audio device
Программа-оцифровщик: Izotope RX 4 Advanced
Обработка: Izotope RX 4 Advanced

Спектр+АЧХ+Уровень записи

DR=14

foobar2000 1.1.10 / Dynamic Range Meter 1.1.1
log date: 2015-05-16 19:01:07
--------------------------------------------------------------------------------
Analyzed: Andre Cluytens / The World's Leading Interpreters Of Music - Conductor
--------------------------------------------------------------------------------
DR Peak RMS Duration Track
--------------------------------------------------------------------------------
DR14 -0.66 dB -20.75 dB 7:28 ?-Allegro vivo
DR16 -3.96 dB -24.55 dB 10:14 ?-Adagio
DR13 -2.41 dB -20.37 dB 4:37 ?-Allegro vivace
DR13 -1.85 dB -20.35 dB 6:24 ?-Allegro vivace
DR14 -1.21 dB -21.18 dB 9:52 ?-"Roman Carnival" Overture. Op. 9
DR17 -1.05 dB -24.74 dB 15:38 ?-Rapsodie Espagnole
DR14 -4.58 dB -23.10 dB 11:11 ?-Night On The Bare Mountain
DR12 -6.64 dB -25.46 dB 5:42 ?-Dawn On The Moskva River
DR16 -1.78 dB -23.74 dB 20:07 ?-The Firebird - ballet suite
--------------------------------------------------------------------------------
Number of tracks: 9
Official DR value: DR14
Samplerate: 48000 Hz
Channels: 1
Bits per sample: 24
Bitrate: 683 kbps
Codec: FLAC
================================================================================

Back,Inside & Disc

[teatrix.ru].t21178.torrent 
Торрент: Зарегистрирован [ 2016-03-20 00:51 ] · B6CF0B43FCB028B49BC283687AD35B9D4418E42B

Скачать .torrent

Скачать

19 KB

Статус: проверено
Скачан: 0 раз
Размер: 460 MB
terms.php



Быстрый ответ

Имя:

      
Для отправки сообщений необходимо включить JavaScript
Показать сообщения:    

Текущее время: 09-Дек 01:09

Часовой пояс: UTC + 3


Вы можете начинать темы
Вы можете отвечать на сообщения
Вы не можете редактировать свои сообщения
Вы не можете удалять свои сообщения
Вы не можете голосовать в опросах
Вы не можете прикреплять файлы к сообщениям
Вы можете скачивать файлы