О, Мельпомена! (Диана Лукова) [1987 г., комедия, экранизация, телеспектакль, SATRip]


 

[Цитировать]

О, Мельпомена! Год выпуска: 1987.
Жанр: комедия, экранизация, телеспектакль.
Продолжительность: 01:30:50.
Режиссер-постановщик: Диана Лукова.
Действующие лица и исполнители:
Светловидов - народный артист СССР Кирилл Лавров,
Суфлер - заслуженный артист РСФСР Александр Демьяненко,
Героиня - заслуженная артистка РСФСР Елена Соловей,
Антрепренер - заслуженный артист РСФСР Игорь Дмитриев,
Первый любовник - заслуженный артист РСФСР Геннадий Богачев,
Трагик - заслуженный артист РСФСР Борис Соколов,
Маша Сидорецкая - Ирина Богданова,
Комик - заслуженный артист РСФСР Михаил Светин,
Инженю-кокэтт - Елена Попова,
Исправник Сидорецкий - заслуженный артист РСФСР Леонид Неведомский,
Помещик Климов - народный артист РСФСР Всеволод Кузнецов,
Газетчик - Валерий Матвеев.
Описание:
Телеспектакль по мотивам рассказов Антона Павловича Чехова "Трагик", "Барон", "Критик", "Комик".
Дополнительная информация:
Страна: СССР .
Выпущено: © Ленинградское телевидение.
Автор: Антон Чехов.
Композитор: Владислав Успенский.
Художник: Юрий Пауков.
Операторы: Евгений Уткин, Сергей Мищук, Кирилл Уткин, А. Константинов, Михаил Грушевский.

Релиз

Качество: SATRip
Формат: AVI
Видео: 720x544 (1.32:1), 25 fps, XviD MPEG-4 ~2010 kbps avg, 0.20 bit/pixel
Аудио: 48 kHz, MPEG Layer 3, 2 ch, ~128.00 kbps avg

Отчет MI

Общее
Полное имя : O.mel'pomena.1987.XviD.TVRip.fenixclub.avi
Format : AVI
Format/Info : Audio Video Interleave
File size : 1.36 GiB
Duration : 1h 30mn
Overall bit rate : 2 149 Kbps
Writing application : VirtualDubModRus 1.5.10.2 (build 2542/release)
Writing library : VirtualDub build 32842/release
Video
ID : 0
Format : MPEG-4 Visual
Format profile : Advanced Simple@L5
Format settings, BVOP : 2
Format settings, QPel : No
Format settings, GMC : No warppoints
Format settings, Matrix : Default (H.263)
Muxing mode : Packed bitstream
Codec ID : XVID
Codec ID/Hint : XviD
Duration : 1h 30mn
Bit rate : 2 011 Kbps
Width : 720 pixels
Height : 544 pixels
Display aspect ratio : 4:3
Frame rate : 25.000 fps
Color space : YUV
Chroma subsampling : 4:2:0
Bit depth : 8 bits
Scan type : Progressive
Compression mode : Lossy
Bits/(Pixel*Frame) : 0.205
Stream size : 1.28 GiB (94%)
Writing library : XviD 73
Audio
ID : 1
Format : MPEG Audio
Format version : Version 1
Format profile : Layer 3
Mode : Joint stereo
Mode extension : MS Stereo
Codec ID : 55
Codec ID/Hint : MP3
Duration : 1h 30mn
Bit rate mode : Constant
Bit rate : 128 Kbps
Channel(s) : 2 channels
Sampling rate : 48.0 KHz
Compression mode : Lossy
Stream size : 83.2 MiB (6%)
Alignment : Split accross interleaves
Interleave, duration : 40 ms (1.00 video frame)
Interleave, preload duratio : 500 ms
Writing library : LAME3.98.2

Скриншоты


Альтернативный хост





Показать сообщения:    

Текущее время: 11-Дек 11:08

Часовой пояс: UTC + 3


Вы не можете начинать темы
Вы не можете отвечать на сообщения
Вы не можете редактировать свои сообщения
Вы не можете удалять свои сообщения
Вы не можете голосовать в опросах
Вы не можете прикреплять файлы к сообщениям
Вы не можете скачивать файлы