[TR24][OF] Alison Balsom (feat. Gothenburg Symphony Orchestra & Edward Gardner) - Caprice - 2006/2014 (Classical)


Статистика раздачи [Обновить пиров]
Размер:  535 MB   |    Зарегистрирован:  8 месяцев 20 дней   |    Скачан:  0 раз

Полного источника не было: Никогда

 
   
 
 
 

[Цитировать]

Alison Balsom
Caprice
-Год издания/переиздания диска: 2006/2014
Жанр: Classical | Издатель (лейбл): Warner Classics
Продолжительность: 00:59:46 | Сканы: Sleeve, Digital Booklet- -Контейнер: FLAC (*.flac) | Тип рипа: tracks
Разрядность: 24bit /44.1kHz | Количество каналов: 2.0-Alison Balsom, trumpet
Göteborgs Symfoniker
Edward Gardner, conductor
-Треклист
Wolfgang Amadeus Mozart (1756-1791)
Sonata in A major K331
01.III. Rondo alla turca (3:07)
Astor Piazzólla (1921-1992)
Libertango
02. Libertango (4:34)
Oskar Fredrik Lindberg (1887-1955)
Gammel fäbodpsalm från Dalarna
03. Andante (4:10)
Jean-Baptiste Arban (1825-1889) arr. Julian Milone
Variations on 'Casta Diva' from Bellini's Norma
04. Variations on 'Casta Diva' (6:26)
Niccolò Paganini (1782-1840) arr. Julian Milone & Alison Balsom
24 Caprices, Op. 1
05. Caprice No.24 in A minor (4:20)
Manuel de Falla (1876-1946) orch. Luciano Berio (1925-2003)
7 Canciones populares españolas
06. I. El paño moruno (1:16)
07. II. Seguidilla murciana (1:14)
08. III. Asturiana (2:09)
09. IV. Jota (3:06)
10. V. Nana (1:28)
11. VI. Canción (1:04)
12. VII. Polo (1:20)
Sergey Rachmaninov (1873-1943) transcr. Alison Balsom
14 Songs, Op. 34
13. No. 14 Vocalise (5:03)
Wolfgang Amadeus Mozart (1756-1791) transcr. Alison Balsom
Die Zauberflöte K. 620 'The Magic Flute'
14. Der Hölle Rache (2:58)
Johann Sebastian Bach (1685-1750) transcr. Alison Balsom
Violin Concerto in A minor BWV 1041
15. II. Andante (6:13)
Claude Achille Debussy (1862-1918)
Syrinx
16. Syrinx (2:43)
Henri Fredien Tomasi (1901-1971)
Trumpet Concerto
17. II. Nocturne (4:35)
Astor Piazzólla (1921-1992) arr. Julian Milone
Esqualo
18. Esqualo (4:00)

О релизе


Infectious performance
Voted Young British Classical Performer of the Year at the 2006 Classical Brits, Alison Balsom follows her critically-acclaimed album Bach: Works for Trumpet with Caprice, a novel and demanding programme of specially arranged popular classical works.
The album features sparkling transcriptions of Mozart's 'Rondo alla Turca' and the Queen of the Night's aria (from The Magic Flute) as well as the scintillating 'Variations on Bellini's Norma' by the French virtuoso Jean-Baptiste Arban. Amongst the more lyrical numbers, Balsom plays arrangements of Rachmaninov's haunting Vocalise and the exquisite Nocturne from Tomasi's Trumpet Concerto. She also brings her unique sound to two pieces played by the trumpet alone: Paganini's well-known violin Caprice No.24 and Debussy's Syrinx.
“The young British trumpeter Alison Balsom is a real star: resplendent and well-varied tone, crisp attack, absolute ease of production throughout the range.” (BBC Music Magazine)
“What comes across is Balsom's sheer exuberance and joy in making music. Be astonished at the variety of moods the trumpet is capable of.” (Classic FM Magazine)
“In the Latin-inspired pieces, Balsom's awareness of the choreographic suggestiveness in the raunchy Piazzolla and smouldering Falla brings exhilarating freedom and colour. …another infectious performance from a dazzling young British talent in fine form, one whose programming ideas and emerging musical personality go from strength to strength.” (Gramophone Magazine)

ОтчётыДинамический диапазон

foobar2000 1.2.2 / Dynamic Range Meter 1.1.1
log date: 2015-05-14 02:34:24
--------------------------------------------------------------------------------
Analyzed: Alison Balsom, Edward Gardner, Göteborgs Symfoniker / Caprice
--------------------------------------------------------------------------------
DR Peak RMS Duration Track
--------------------------------------------------------------------------------
DR14 -0.40 dB -18.71 dB 3:07 ?-Sonata in A major K331 - III. Rondo alla turca
DR13 -0.40 dB -17.57 dB 4:34 ?-Libertango
DR12 -4.47 dB -22.87 dB 4:10 ?-Gammel fäbodpsalm från Dalarna - Andante
DR15 -0.25 dB -20.27 dB 6:26 ?-Variations on 'Casta Diva' from Bellini's Norma
DR15 -2.24 dB -22.45 dB 4:20 ?-Caprice No.24 in A minor
DR14 -4.41 dB -22.76 dB 1:16 ?-7 Canciones populares españolas - I. El paño moruno
DR13 -0.40 dB -19.06 dB 1:14 ?-7 Canciones populares españolas - II. Seguidilla murciana
DR11 -10.95 dB -27.49 dB 2:09 ?-7 Canciones populares españolas - III. Asturiana
DR14 -2.11 dB -22.51 dB 3:06 ?-7 Canciones populares españolas - IV. Jota
DR11 -16.36 dB -32.78 dB 1:28 ?-7 Canciones populares españolas - V. Nana
DR10 -9.87 dB -25.41 dB 1:04 ?-7 Canciones populares españolas - VI. Canción
DR14 -0.40 dB -18.89 dB 1:20 ?-7 Canciones populares españolas - VII. Polo
DR12 -0.51 dB -19.27 dB 5:03 ?-Vocalise
DR14 -0.28 dB -18.11 dB 2:58 ?-Der Hölle Rache from Die Zauberflöte K620
DR13 -4.31 dB -22.35 dB 6:13 ?-Violin Concerto in A minor BWV 1041 - II. Andante
DR11 -4.67 dB -22.22 dB 2:43 ?-Syrinx
DR13 -0.40 dB -19.81 dB 4:35 ?-Trumpet Concerto - II. Nocturne
DR13 -0.40 dB -17.99 dB 4:00 ?-Esqualo
--------------------------------------------------------------------------------
Number of tracks: 18
Official DR value: DR13
Samplerate: 44100 Hz
Channels: 2
Bits per sample: 24
Bitrate: 1282 kbps
Codec: FLAC
================================================================================

Скриншот спектра частот

Доп. информация

При скачивании, если необходимо, переименуйте папку, в которой будет находиться альбомБольшая просьба к скачавшим поддерживать раздачу! Помогайте другим, ведь вам тоже может понадобиться помощь!Не забываем говорить "Спасибо"!Комментарии приветствуются!
Alison Balsom Hi-Res
[teatrix.ru].t21184.torrent 
Торрент: Зарегистрирован [ 2016-03-20 00:51 ] · 70FC4E6AB597B6D608C79AB055C6D635AA8CAFC0

Скачать .torrent

Скачать

12 KB

Статус: проверено
Скачан: 0 раз
Размер: 535 MB
terms.php



Быстрый ответ

Имя:

      
Для отправки сообщений необходимо включить JavaScript
Показать сообщения:    

Текущее время: 09-Дек 02:59

Часовой пояс: UTC + 3


Вы можете начинать темы
Вы можете отвечать на сообщения
Вы не можете редактировать свои сообщения
Вы не можете удалять свои сообщения
Вы не можете голосовать в опросах
Вы не можете прикреплять файлы к сообщениям
Вы можете скачивать файлы