[TR24][OF] Alison Balsom (feat. Die Deutsche Kammerphilharmonie Bremen & Thomas Klug) - Hummel, Haydn, Torelli & Neruda: Trumpet Concertos - 2008/2014 (Classical)


Статистика раздачи [Обновить пиров]
Размер:  498 MB   |    Зарегистрирован:  8 месяцев 21 день   |    Скачан:  0 раз

Полного источника не было: Никогда

 
   
 
 
 

[Цитировать]

Alison Balsom
Haydn & Hummel: Trumpet Concertos
-Год издания/переиздания диска: 2008/2014
Жанр: Classical | Издатель (лейбл): Warner Classics
Продолжительность: 00:52:47 | Сканы: Sleeve, Digital Booklet- -Контейнер: FLAC (*.flac) | Тип рипа: tracks
Разрядность: 24bit /44.1kHz | Количество каналов: 2.0-Alison Balsom, trumpet
Die Deutsche Kammerphilharmonie Bremen, orchestra
Thomas Klug, leader
-Треклист
Johann Nepomuk Hummel (1778-1837)
Trumpet Concerto in E flat major
01.I. Allegro con spirito (9:24)
02. II. Andante (4:45)
03. III. Rondo (3:41)
Joseph Haydn (1732-1809)
Trumpet Concerto in E flat major Hob.VIIe:1
04. I. Allegro (6:37)
05. II. Andante (3:32)
06. III. Finale. Allegro (4:35)
Giuseppe Torelli (1658-1709)
Trumpet Concerto in D major
07. I. Allegro (2:00)
08. II. Adagio - Presto - Allegro (2:18)
09. III. Allegro (1:34)
Jan Křtitel Jiří Neruda a.k.a. Johann Baptist Georg Neruda (1711-1776)
Trumpet Concerto in E flat major
10. I. Allegro (5:14)
11. II. Largo (4:34)
12. III. Vivace (4:33)

О релизе


Perfect balance
Alison Balsom’s fourth album for EMI Classics features Franz Joseph Haydn and Johann Nepomuk Hummel’s evergreen trumpet concertos, coupled with concertos by Johann Baptist Georg Neruda and Giuseppe Torelli. Balsom also directs Die Deutsche Kammerphilharmonie Bremen.
The Haydn Trumpet Concerto is arguably the most popular work for the instrument as well as one of the composer’s best known compositions, a favourite of performers and audiences alike for its wonderful melodic invention and challenging virtuosity. Reviewing Alison’s performance with the Milwaukee Symphony in March of this year, the Journal Sentinel wrote, “Alison Balsom's details of attack, release, dynamics and timbre polished Haydn's … Trumpet Concerto into an exquisite little gem. …This concerto … has its moments of brilliant bugling. More often, though, it [shows the short-lived keyed trumpet] capable of a refined sort of expression …. Balsom excelled at both facets of the concerto. She snapped off staccato 16ths with ease and signal calls with clarion purity and power. And she shaped and colored Haydn's gentle, lyrical lines with the grace and warmth of a really good Mozartean mezzo.”
Jonathan Freeman-Attwood’s CD booklet note describes the notoriously-difficult-to-play ‘natural’ trumpet of the Renaissance and Baroque periods and the development of the ‘keyed’ trumpet by the Viennese court trumpeter Anton Weidinger in the 1790s, which inspired the concerto masterpieces by Haydn and Hummel performed on this disc.
The enticing melodic possibilities of Weidinger’s “keyed” trumpet, and indeed the artistry of Weidinger himself, moved Franz Joseph Haydn (1732-1809), then at the height of his powers, to compose his concerto in E-flat for trumpet & orchestra. His last purely orchestral work, the concerto is a “gloriously ebullient and concise masterpiece in which the composer […] conceives a highly distinctive palette to thrust the trumpet into a brave new world.” Interestingly, it was not premiered until 1800, four years after its completion, possibly because Weidinger needed time to master its technical challenges.
Also composed for Weidinger was the Concerto in E Major (often performed, as here, in E-flat) by Johann Nepomuk Hummel (1778-1837), prodigy, student of Mozart and, later, of Haydn. Hummel composed his trumpet concerto in 1803 and Weidinger premiered it the following year for members of the Esterházy court. The composer was subsequently appointed music director there, on Haydn’s recommendation and likely helped by the success of his trumpet concerto. The concerto, “a more expansive work [than Haydn’s, takes the modified trumpet] a stage further in variety of idiomatic figuration and harmonic adventure.”
The Concerto in D by Giuseppe Torelli (1658-1709) was composed for the “natural” trumpet and likely performed on feast days in the San Petronio Basilica. The concerto for hunting horn and strings in E-flat by the Czech composer Johann Baptist Neruda (c1707-c1780) was probably written in the 1760s and is an example of a charming, traditional work of its era.
“Balsom plays them all with great virtuosity, varied toned and good style. The German Chamber Philharmonic provides spirited, carefully detailed support.” (BBC Music Magazine)
„Occasionally a player comes along who turns all the preconceived ideas about their instrument on their head, and reinvents the repertoire. … Alison Balsom is a virtuoso player and a natural, gifted communicator, but what really comes across is her sheer exuberance and joy in making music.” (Classic FM Magazine)

ОтчётыДинамический диапазон

foobar2000 1.2.2 / Dynamic Range Meter 1.1.1
log date: 2015-05-14 02:19:20
--------------------------------------------------------------------------------
Analyzed: Alison Balsom, Thomas Klug, Die Deutsche Kammerphilharmonie Bremen / Haydn & Hummel: Trumpet Concertos
--------------------------------------------------------------------------------
DR Peak RMS Duration Track
--------------------------------------------------------------------------------
DR13 -0.17 dB -17.66 dB 9:24 ?-Trumpet Concerto in E flat major - I. Allegro con spirito
DR13 -0.56 dB -19.32 dB 4:45 ?-Trumpet Concerto in E flat major - II. Andante
DR12 -0.18 dB -16.96 dB 3:41 ?-Trumpet Concerto in E flat major - III. Rondo
DR12 -0.09 dB -16.12 dB 6:37 ?-Trumpet Concerto in E flat major Hob.VIIe:1 - I. Allegro
DR13 -1.65 dB -22.44 dB 3:32 ?-Trumpet Concerto in E flat major Hob.VIIe:1 - II. Andante
DR13 -0.09 dB -16.91 dB 4:35 ?-Trumpet Concerto in E flat major Hob.VIIe:1 - III. Finale. Allegro
DR12 -0.37 dB -16.39 dB 2:00 ?-Trumpet Concerto in D major - I. Allegro
DR13 -6.42 dB -23.09 dB 2:18 ?-Trumpet Concerto in D major - II. Adagio - Presto - Allegro
DR13 -0.21 dB -16.84 dB 1:34 ?-Trumpet Concerto in D major - III. Allegro
DR13 -0.66 dB -17.78 dB 5:14 ?-Trumpet Concerto in E flat major - I. Allegro
DR11 -5.28 dB -21.22 dB 4:34 ?-Trumpet Concerto in E flat major - II. Largo
DR12 -1.05 dB -18.03 dB 4:33 ?-Trumpet Concerto in E flat major - III. Vivace
--------------------------------------------------------------------------------
Number of tracks: 12
Official DR value: DR12
Samplerate: 44100 Hz
Channels: 2
Bits per sample: 24
Bitrate: 1310 kbps
Codec: FLAC
================================================================================

Скриншот спектра частот

Доп. информация

При скачивании, если необходимо, переименуйте папку, в которой будет находиться альбомБольшая просьба к скачавшим поддерживать раздачу! Помогайте другим, ведь вам тоже может понадобиться помощь!Не забываем говорить "Спасибо"!Комментарии приветствуются!
Alison Balsom Hi-Res
[teatrix.ru].t21188.torrent 
Торрент: Зарегистрирован [ 2016-03-20 00:50 ] · F81E1E2FD67B41ACE56BD7C32DF0215C73DA7ED1

Скачать .torrent

Скачать

21 KB

Статус: проверено
Скачан: 0 раз
Размер: 498 MB
terms.php



Быстрый ответ

Имя:

      
Для отправки сообщений необходимо включить JavaScript
Показать сообщения:    

Текущее время: 10-Дек 13:53

Часовой пояс: UTC + 3


Вы можете начинать темы
Вы можете отвечать на сообщения
Вы не можете редактировать свои сообщения
Вы не можете удалять свои сообщения
Вы не можете голосовать в опросах
Вы не можете прикреплять файлы к сообщениям
Вы можете скачивать файлы