(Orchestral) Gustav Mahler - Symphonien Nrn.1 und 10 [Adagio] (Royal Philharmonic Orchestra • Wiener Staatsopernorchester - H.Scherchen) - 2001, FLAC (image+.cue) lossless


 

[Цитировать]

MAHLER
Symphony No.1 • No.10: Adagio

Royal Philharmonic Orchestra
Vienna State Opera Orchestra
Hermann Scherchen
--- Жанр: Orchestral
Страна-производитель диска: USA
Год издания диска: 2001
Издатель (лейбл): Westminster
Дата записи: 1952/55
Аудиокодек: FLAC
Тип рипа: image+.cue
Битрейт аудио: lossless
Продолжительность: 79'12''
Источник: собственный рип
Наличие сканов в содержимом раздачи: да
Треклист:
G.Mahler - Symphonie Nr.1:
[01] I. Langsam. Schleppend
[02] II. Kräftig bewegt, doch nicht zu schnell - Trio. Recht gemächlich
[03] III. Feierlich und gemessen, ohne zu schleppen
[04] IV. Stürmisch bewegt
G.Mahler - Symphonie Nr.10:
[05] I. Adagio
Исполнители:
Royal Philharmonic Orchestra
Wiener Staatsopernorchester [5]
Hermann Scherchen-

Лог создания рипа

Exact Audio Copy V1.0 beta 4 from 7. December 2014
EAC extraction logfile from 12. January 2015, 17:02
Hermann Scherchen / Mahler - Symphonien 1 und 10
Used drive : HL-DT-STDVD+-RW GU90N Adapter: 1 ID: 0
Read mode : Secure
Utilize accurate stream : Yes
Defeat audio cache : Yes
Make use of C2 pointers : No
Read offset correction : 102
Overread into Lead-In and Lead-Out : No
Fill up missing offset samples with silence : Yes
Delete leading and trailing silent blocks : No
Null samples used in CRC calculations : Yes
Used interface : Native Win32 interface for Win NT & 2000
Used output format : User Defined Encoder
Selected bitrate : 1024 kBit/s
Quality : High
Add ID3 tag : No
Command line compressor : C:\Program Files (x86)\FLAC\flac.exe
Additional command line options : -T "COMMENT=rip by el coronel" -8 -V %source%
TOC of the extracted CD
Track | Start | Length | Start sector | End sector
---------------------------------------------------------
1 | 0:00.00 | 15:14.12 | 0 | 68561
2 | 15:14.12 | 6:14.00 | 68562 | 96611
3 | 21:28.12 | 10:55.00 | 96612 | 145736
4 | 32:23.12 | 17:54.00 | 145737 | 226286
5 | 50:17.12 | 28:55.02 | 226287 | 356413
Range status and errors
Selected range
Filename F:\Music\Mahler 1 und 10 Scherchen\CD.wav
Peak level 98.2 %
Extraction speed 5.1 X
Range quality 100.0 %
Test CRC 3AA4512B
Copy CRC 3AA4512B
Copy OK
No errors occurred
AccurateRip summary
Track 1 accurately ripped (confidence 3) [DED5F543] (AR v2)
Track 2 accurately ripped (confidence 3) [725A5B03] (AR v2)
Track 3 accurately ripped (confidence 3) [542D392D] (AR v2)
Track 4 accurately ripped (confidence 3) [0BE4BE49] (AR v2)
Track 5 accurately ripped (confidence 3) [68D255B7] (AR v2)
All tracks accurately ripped
End of status report
---- CUETools DB Plugin V2.1.4
[CTDB TOCID: GUpdjKS.sHN7Td7AW0pTIQTMB9o-] found
Submit result: GUpdjKS.sHN7Td7AW0pTIQTMB9o- has been confirmed
Track | CTDB Status
1 | (1/1) Accurately ripped
2 | (1/1) Accurately ripped
3 | (1/1) Accurately ripped
4 | (1/1) Accurately ripped
5 | (1/1) Accurately ripped
==== Log checksum 9F3AD935E6F39B1862FA454E71234D8BD9D7C4B413E6DDDE2F828DBD1B7071EA ====

Содержание индексной карты (.CUE)

REM GENRE Symphony
REM DATE 2001
REM DISCID 3E129005
REM COMMENT "ExactAudioCopy v1.0b4"
CATALOG 0028947124627
PERFORMER "Hermann Scherchen"
TITLE "Mahler - Symphonien 1 und 10"
FILE "CD.flac" WAVE
TRACK 01 AUDIO
TITLE "Symphonie Nr.1: I. Langsam. Schleppend"
PERFORMER "Royal Philharmonic Orchestra - Hermann Scherchen"
ISRC DEF055409011
INDEX 01 00:00:00
TRACK 02 AUDIO
TITLE "II. Kraftig bewegt, doch nicht zu schnell - Trio. Recht gemachlich"
PERFORMER "Royal Philharmonic Orchestra - Hermann Scherchen"
ISRC DEF055409012
INDEX 01 15:14:12
TRACK 03 AUDIO
TITLE "III. Feierlich und gemessen, ohne zu schleppen"
PERFORMER "Royal Philharmonic Orchestra - Hermann Scherchen"
ISRC DEF055409013
INDEX 01 21:28:12
TRACK 04 AUDIO
TITLE "IV. Sturmisch bewegt"
PERFORMER "Royal Philharmonic Orchestra - Hermann Scherchen"
ISRC DEF055409014
INDEX 01 32:23:12
TRACK 05 AUDIO
TITLE "Symphonie Nr.10: I. Adagio"
PERFORMER "Wiener Staatsopernorchester - Hermann Scherchen"
ISRC DEF055209010
INDEX 00 50:05:12
INDEX 01 50:17:12
-



Показать сообщения:    

Текущее время: 08-Дек 17:25

Часовой пояс: UTC + 3


Вы не можете начинать темы
Вы не можете отвечать на сообщения
Вы не можете редактировать свои сообщения
Вы не можете удалять свои сообщения
Вы не можете голосовать в опросах
Вы не можете прикреплять файлы к сообщениям
Вы не можете скачивать файлы