(Orchestral) Gustav Mahler - Symphonie Nr.5 (Wiener Staatsopernorchester - H.Scherchen) - 2002, FLAC (image+.cue) lossless


 

[Цитировать]

MAHLER
SYMPHONY NO.5

Vienna State Opera Orchestra
HERMANN SCHERCHEN
--- Жанр: Orchestral
Страна-производитель диска: USA
Год издания диска: 2002
Издатель (лейбл): Westminster
Дата записи: 1952
Аудиокодек: FLAC
Тип рипа: image+.cue
Битрейт аудио: lossless
Продолжительность: 67'39''
Источник: собственный рип
Наличие сканов в содержимом раздачи: да
Треклист:
G.Mahler - Symphonie Nr.5:
[01] I. Trauermarsch. In gemessenem Schritt. Streng Wie ein Kondukt
[02] II. Stürmisch bewegt. Mit grösster Vehemnz
[03] III. Scherzo. Kräftig, nicht zu schnell
[04] IV. Adagietto. Sehr langsam
[05] V. Rondo-Finale. Allegro - Allegro giocoso. Frisch.
Исполнители:
Wiener Staatsopernorchester - Hermann Scherchen-

Лог создания рипа

Exact Audio Copy V1.0 beta 4 from 7. December 2014
EAC extraction logfile from 12. January 2015, 16:22
Wiener Staatsopernorchester - Hermann Scherchen / Mahler 5
Used drive : HL-DT-STDVD+-RW GU90N Adapter: 1 ID: 0
Read mode : Secure
Utilize accurate stream : Yes
Defeat audio cache : Yes
Make use of C2 pointers : No
Read offset correction : 102
Overread into Lead-In and Lead-Out : No
Fill up missing offset samples with silence : Yes
Delete leading and trailing silent blocks : No
Null samples used in CRC calculations : Yes
Used interface : Native Win32 interface for Win NT & 2000
Used output format : User Defined Encoder
Selected bitrate : 1024 kBit/s
Quality : High
Add ID3 tag : No
Command line compressor : C:\Program Files (x86)\FLAC\flac.exe
Additional command line options : -T "COMMENT=rip by el coronel" -8 -V %source%
TOC of the extracted CD
Track | Start | Length | Start sector | End sector
---------------------------------------------------------
1 | 0:00.00 | 11:22.25 | 0 | 51174
2 | 11:22.25 | 13:35.25 | 51175 | 112324
3 | 24:57.50 | 18:06.25 | 112325 | 193799
4 | 43:04.00 | 9:15.25 | 193800 | 235449
5 | 52:19.25 | 15:19.50 | 235450 | 304424
Range status and errors
Selected range
Filename F:\Music\Mahler 5 Scherchen (VSOO)\CD.wav
Peak level 95.3 %
Extraction speed 4.6 X
Range quality 99.9 %
Test CRC A0FBE5D5
Copy CRC A0FBE5D5
Copy OK
No errors occurred
AccurateRip summary
Track 1 accurately ripped (confidence 2) [F91DBB84] (AR v2)
Track 2 accurately ripped (confidence 2) [D66CD168] (AR v2)
Track 3 accurately ripped (confidence 2) [C502259A] (AR v2)
Track 4 accurately ripped (confidence 2) [CD65F169] (AR v2)
Track 5 accurately ripped (confidence 2) [D0AA5E4D] (AR v2)
All tracks accurately ripped
End of status report
---- CUETools DB Plugin V2.1.4
[CTDB TOCID: vUKhyC_oF5Ip_NQKeLx6mOHpFJM-] found
Submit result: vUKhyC_oF5Ip_NQKeLx6mOHpFJM- has been confirmed
Track | CTDB Status
1 | (1/1) Accurately ripped
2 | (1/1) Accurately ripped
3 | (1/1) Accurately ripped
4 | (1/1) Accurately ripped
5 | (1/1) Accurately ripped
==== Log checksum BE191DCE44EEBC2EAB5BC6786B9157E98FF7EF5DE558819F5DA380EE2B909D96 ====

Содержание индексной карты (.CUE)

REM GENRE Classical
REM DATE 2002
REM DISCID 490FDB05
REM COMMENT "ExactAudioCopy v1.0b4"
CATALOG 0028947126829
PERFORMER "Wiener Staatsopernorchester - Hermann Scherchen"
TITLE "Mahler 5"
FILE "CD.flac" WAVE
TRACK 01 AUDIO
TITLE "I. Trauermarsch. In gemessenem Schritt. Streng Wie ein Kondukt"
PERFORMER "Wiener Staatsopernorchester - Hermann Scherchen"
ISRC DEF055209011
INDEX 01 00:00:00
TRACK 02 AUDIO
TITLE "II. Stuermisch bewegt. Mit groesster Vehemnz"
PERFORMER "Wiener Staatsopernorchester - Hermann Scherchen"
ISRC DEF055209012
INDEX 01 11:22:25
TRACK 03 AUDIO
TITLE "III. Scherzo. Kraeftig, nicht zu schnell"
PERFORMER "Wiener Staatsopernorchester - Hermann Scherchen"
ISRC DEF055209013
INDEX 01 24:57:50
TRACK 04 AUDIO
TITLE "IV. Adagietto. Sehr langsam"
PERFORMER "Wiener Staatsopernorchester - Hermann Scherchen"
ISRC DEF055209014
INDEX 01 43:04:00
TRACK 05 AUDIO
TITLE "V. Rondo-Finale. Allegro - Allegro giocoso. Frisch."
PERFORMER "Wiener Staatsopernorchester - Hermann Scherchen"
ISRC DEF055209015
INDEX 01 52:19:25
-



Показать сообщения:    

Текущее время: 08-Дек 17:25

Часовой пояс: UTC + 3


Вы не можете начинать темы
Вы не можете отвечать на сообщения
Вы не можете редактировать свои сообщения
Вы не можете удалять свои сообщения
Вы не можете голосовать в опросах
Вы не можете прикреплять файлы к сообщениям
Вы не можете скачивать файлы