[TR24][SM][OF] J.S. Bach - St. Matthew Passion - Richard Egarr & Academy of Ancient Music & Choir of the AAM - 2015 (Classical)


Статистика раздачи [Обновить пиров]
Размер:  2.74 GB   |    Зарегистрирован:  8 месяцев 20 дней   |    Скачан:  0 раз

Полного источника не было: Никогда

 
   
 
 
 

[Цитировать]

Johann Sebastian Bach (1685-1750)
Формат записи/Источник записи: [TR24][SM][OF]
Наличие водяных знаков: Нет
Издание: AAM004
Год издания/переиздания диска: 2015
Жанр: Classical
Издатель(лейбл): © Academy of Ancient Music
Продолжительность: 02:23:39
Наличие сканов в содержимом раздачи: Да
Контейнер: FLAC (*.flac)
Тип рипа: tracks
Разрядность: 24/96
Формат: WAV (flac.ape.wv)
Количество каналов: 2.0
Источник (релизер): http://www.qobuz.com/fr-fr/album/js-bach-st-matthew-passion-bwv-244-academy-of-an...rr/5060340150051

Треклист

Part I
01. Chorus Kommt, ihr Töchter, helft mir klagen 6’25
02. Recitativo (Evangelista, Jesus) Da Jesus diese Rede vollendet hatte 0’37
03. Choral Herzliebster Jesu, was hast du verbrochen 0’34
04. Recitativo (Evangelista) Da versammleten sich die Hohenpriester 0’25
05. Chorus Ja nicht auf das Fest 0’14
06. Recitativo (Evangelista) Da nun Jesus war zu Bethanien 0’28
07. Chorus Wozu dienet dieser Unrat? 0’27
08. Recitativo (Evangelista, Jesus) Da das Jesus merkete 1’12
09. Recitativo (alto) Du lieber Heiland du 0’53
10. Aria (alto) Buß und Reu 4’18
11. Recitativo (Evangelista, Judas) Da ging hin der Zwölfen einer 0’35
12. Aria (soprano) Blute nur, du liebes Herz! 4’08
13. Recitativo (Evangelista) Aber am ersten Tage der süßen Brot 0’13
14. Chorus Wo willst du, daß wir dir bereiten 0’21
15. Recitativo (Evangelista, Jesus) Er sprach: Gehet hin in die Stadt 1’07
16. Recitativo (Evangelista) Und sie wurden sehr betrübt 0’11
17. Chorus Herr, bin ichs? 0’10
18. Choral Ich bins, ich sollte büßen 0’36
19. Recitativo (Evangelista, Jesus, Judas) Er antwortete und sprach 2’39
20. Recitativo (soprano) Wiewohl mein Herz in Tränen schwimmt 1’10
21. Aria (soprano) Ich will dir mein Herze schenken 3’24
22. Recitativo (Evangelista) Und da sie den Lobgesang gesprochen hatten 0’58
23. Choral Erkenne mich, mein Hüter 0’52
24. Recitativo (Evangelista, Petrus, Jesus) Petrus aber antwortete und sprach zu ihm 0’55
25. Choral Es dient zu meinem Freuden 0’52
26. Recitativo (Evangelista, Jesus) Da kam Jesus mit ihnen zu einem Hofe 1’29
27. Recitativo (tenor, choir II) O Schmerz! hier zittert das gequälte Herz 1’35
28. Aria (tenor, choir II) Ich will bei meinem Jesu wachen 5’00
29. Recitativo (Evangelista, Jesus) Und ging hin ein wenig 0’35
30. Recitativo (bass) Der Heiland fällt vor seinem Vater nieder 0’58
31. Aria (bass) Gerne will ich mich bequemen 4’14
32. Recitativo (Evangelista, Jesus) Und er kam zu seinen Jüngern 1’00
33. Choral Was mein Gott will, das g’scheh allzeit 0’51
34. Recitativo (Evangelista, Jesus, Judas) Und er kam und fand sie aber schlafend 2’09
35. Aria (soprano, alto, choir II) So ist mein Jesus nun gefangen 3’20
36. Chorus Sind Blitze, sind Donner 1’01
37. Recitativo (Evangelista, Jesus) Und siehe, einer aus denen, die mit Jesu waren 1’58
38. Choral Jesum laß ich nicht von mir 0’49
Part II
01. Aria (bass, choir II) Ach, nun ist mein Jesus hin! 3’17
02. Recitativo (Evangelista) Die aber Jesum gegriffen hatten 1’04
03. Choral Mir hat die Welt trüglich gericht’ 0’36
04. Recitativo (Evangelista, Testis I & II, Pontifex) Und wiewohl viel falsche Zeugen 1’05
05. Recitativo (tenor) Mein Jesus schweigt zu falschen Lügen stille 0’57
06. Aria (tenor) Geduld, Geduld! 3’32
07. Recitativo (Evangelista, Pontifex, Jesus) Und der Hohenpriester antwortete 1’07
08. Chorus Er ist des Todes schuldig! 0’10
09. Recitativo (Evangelista) Da speieten sie aus 0’13
10. Chorus Weissage uns, Christe 0’19
11. Choral Wer hat dich so geschlagen 0’36
12. Recitativo (Evangelista, Ancilla I & II, Petrus) Petrus aber saß draußen im Palast 0’54
13. Chorus Wahrlich, du bist auch einer von denen 0’10
14. Recitativo (Evangelista, Petrus) Da hub er an, sich zu verfluchen 1’17
15. Aria (alto) Erbarme dich, mein Gott 6’41
16. Choral Bin ich gleich von dir gewichen 0’48
17. Recitativo (Evangelista, Judas) Des Morgens aber hielten alle Hohepriester 0’56
18. Chorus Was gehet uns das an? 0’08
19. Recitativo (Evangelista, Pontifex I & II) Und er warf die Silberlinge in den Tempel 0’41
20. Aria (bass) Gebt mir meinen Jesum wieder! 2’37
21. Recitativo (Evangelista, Pilatus, Jesus) Sie hielten aber einen Rat 1’49
22. Choral Befiehl du deine Wege 0’50
23. Recitativo (Evangelista, Pilatus, Uxor Pilati, choir I & II) Auf das Fest 1’50
24. Chorus Laß ihn kreuzigen! 0’15
25. Choral Wie wunderbarlich ist doch diese Strafe! 0’32
26. Recitativo (Evangelista, Pilatus) Der Landpfleger sagte 0’15
27. Recitativo (soprano) Er hat uns allen wohlgetan 1’10
28. Aria (soprano) Aus Liebe will mein Heiland sterben 5’03
29. Recitativo (Evangelista) Sie schrieen aber noch mehr 0’05
30. Chorus Laß ihn kreuzigen! 0’15
31. Recitativo (Evangelista, Pilatus) Da aber Pilatus sahe 0’25
32. Chorus Sein Blut komme über uns 0’38
33. Recitativo (Evangelista) Da gab er ihnen Barrabam los 0’19
34. Recitativo (alto) Erbarm es Gott! 0’58
35. Aria (alto) Können Tränen meiner Wangen 6’13
36. Recitativo (Evangelista) Da nahmen die Kriegsknechte 0’37
37. Chorus Gegrüßet seist du, Jüdenkönig! 0’09
38. Recitativo (Evangelista) Und speieten ihn an 0’12
39. Choral O Haupt, voll Blut und Wunden 0’58
Part II (continue)
01. Recitativo (Evangelista) Und da sie ihn verspottet hatten 1’02
02. Recitativo (bass) Ja, freilich will in uns das Fleisch und Blut 0’31
03. Aria (bass) Komm, süßes Kreuz 5’02
04. Recitativo (Evangelista) Und da sie an die Stätte kamen 1’42
05. Chorus Der du den Tempel Gottes zerbrichst 0’25
06. Recitativo (Evangelista) Desgleichen auch die Hohenpriester 0’10
07. Chorus Andern hat er geholfen 0’45
08. Recitativo (Evangelista) Desgleichen schmäheten ihn auch die Mörder 0’15
09. Recitativo (alto) Ach Golgatha 1’16
10. Aria (alto, choir II) Sehet, Jesus hat die Hand 2’49
11. Recitativo (Evangelista, Jesus) Und von der sechsten Stunde 1’18
12. Chorus Der rufet dem Elias! 0’04
13. Recitativo (Evangelista) Und bald lief einer unter ihnen 0’15
14. Chorus Halt! laß sehen 0’06
15. Recitativo (Evangelista) Aber Jesus schriee abermal laut 0’22
16. Choral Wenn ich einmal soll scheiden 1’02
17. Recitativo (Evangelista) Und siehe da, der Vorhang im Tempel zerriß 1’07
18. Chorus Wahrlich, dieser ist Gottes Sohn gewesen 0’17
19. Recitativo (Evangelista) Und es waren viel Weiber da 1’08
20. Recitativo (bass) Am Abend, da es kühle war 1’45
21. Aria (bass) Mache dich, mein Herze, rein 5’50
22. Recitativo (Evangelista) Und Joseph nahm den Leib 1’00
23. Chorus Herr, wir haben gedacht 0’48
24. Recitativo (Evangelista, Pilatus) Pilatus sprach zu ihnen 0’34
25. Recitativo (soprano, alto, tenor, bass, choir II) Nun ist der Herr zur Ruh gebracht 1’37
26. Chorus Wir setzen uns mit Tränen nieder 5’09

Dynamic Range Meter

foobar2000 1.2.6 / Dynamic Range Meter 1.1.1
log date: 2015-05-18 01:26:32
--------------------------------------------------------------------------------
Analyzed: Academy of Ancient Music, Orchestra - Ashley Riches, Performer - Richard Egarr, Conductor - Johann Sebastian Bach, Composer - Christian Friedrich Henrici, Lyricist - Bible - New Testament, Lyricist / Academy of Ancient Music - Richard Egarr : J.S. Bach: St. Matthew Passion, BWV 244 (1-3)
Choir of the AAM
Academy of Ancient Music
Richard Egarr, Conductor
Johann Sebastian Bach, Composer
Christian Friedrich Henrici, Lyricist
Bible - New Testament, Lyricist / Academy of Ancient Music - Richard Egarr : J.S. Bach: St. Matthew Passion, BWV 244 (4)
Choir of the AAM, Choir - Academy of Ancient Music, Orchestra - Richard Egarr, Conductor - Johann Sebastian Bach, Composer - Christian Friedrich Henrici, Lyricist - Bible - New Testament, Lyricist / Academy of Ancient Music - Richard Egarr : J.S. Bach: St. Matthew Passion, BWV 244 (5-15)
Choir of the AAM, Choir - Sarah Connolly, Performer - Academy of Ancient Music, Orchestra - Richard Egarr, Conductor - Johann Sebastian Bach, Composer - Christian Friedrich Henrici, Lyricist - Bible - New Testament, Lyricist / Academy of Ancient Music - Richard Egarr : J.S. Bach: St. Matthew Passion, BWV 244 (16)
Choir of the AAM, Choir - Thomas Hobbs, Performer - Academy of Ancient Music, Orchestra - Richard Egarr, Conductor - Johann Sebastian Bach, Composer - Christian Friedrich Henrici, Lyricist - Bible - New Testament, Lyricist / Academy of Ancient Music - Richard Egarr : J.S. Bach: St. Matthew Passion, BWV 244 (17-18)
Christopher Field, Performer - James Gilchrist, Performer - Stuart jackson, Performer - Academy of Ancient Music, Orchestra - Richard Egarr, Conductor - Johann Sebastian Bach, Composer - Christian Friedrich Henrici, Lyricist - Bible - New Testament, Lyricist / Academy of Ancient Music - Richard Egarr : J.S. Bach: St. Matthew Passion, BWV 244 (19)
Christopher Maltman, Performer - Academy of Ancient Music, Orchestra - Richard Egarr, Conductor - Johann Sebastian Bach, Composer - Christian Friedrich Henrici, Lyricist - Bible - New Testament, Lyricist / Academy of Ancient Music - Richard Egarr : J.S. Bach: St. Matthew Passion, BWV 244 (20-21)
James Gilchrist, Performer - Academy of Ancient Music, Orchestra - Richard Egarr, Conductor - Johann Sebastian Bach, Composer - Christian Friedrich Henrici, Lyricist - Bible - New Testament, Lyricist / Academy of Ancient Music - Richard Egarr : J.S. Bach: St. Matthew Passion, BWV 244 (22-25)
James Gilchrist, Performer - Matthew Rose, Performer - Academy of Ancient Music, Orchestra - Richard Egarr, Conductor - Johann Sebastian Bach, Composer - Christian Friedrich Henrici, Lyricist - Bible - New Testament, Lyricist / Academy of Ancient Music - Richard Egarr : J.S. Bach: St. Matthew Passion, BWV 244 (26-32)
Philip Tebb, Performer - James Gilchrist, Performer - Academy of Ancient Music, Orchestra - Richard Egarr, Conductor - Johann Sebastian Bach, Composer - Christian Friedrich Henrici, Lyricist - Bible - New Testament, Lyricist / Academy of Ancient Music - Richard Egarr : J.S. Bach: St. Matthew Passion, BWV 244 (33)
Philip Tebb, Performer - James Gilchrist, Performer - Matthew Rose, Performer - Academy of Ancient Music, Orchestra - Richard Egarr, Conductor - Johann Sebastian Bach, Composer - Christian Friedrich Henrici, Lyricist - Bible - New Testament, Lyricist / Academy of Ancient Music - Richard Egarr : J.S. Bach: St. Matthew Passion, BWV 244 (34-35)
Richard Latham, Performer - James Gilchrist, Performer - Matthew Rose, Performer - Academy of Ancient Music, Orchestra - Richard Egarr, Conductor - Johann Sebastian Bach, Composer - Christian Friedrich Henrici, Lyricist - Bible - New Testament, Lyricist / Academy of Ancient Music - Richard Egarr : J.S. Bach: St. Matthew Passion, BWV 244 (36)
Sarah Connolly, Performer - Academy of Ancient Music, Orchestra - Richard Egarr, Conductor - Johann Sebastian Bach, Composer - Christian Friedrich Henrici, Lyricist - Bible - New Testament, Lyricist / Academy of Ancient Music - Richard Egarr : J.S. Bach: St. Matthew Passion, BWV 244 (37-38)
--------------------------------------------------------------------------------
DR Peak RMS Duration Track
--------------------------------------------------------------------------------
DR14 -3.90 dB -22.87 dB 4:08 12-St. Matthew Passion, BWV 244:St. Matthew Passion, BWV 244: Part I: Blute nur, du liebes Herz (Soprano)
DR12 -4.63 dB -21.79 dB 1:10 20-St. Matthew Passion, BWV 244:St. Matthew Passion, BWV 244: Part I: Recitative: Wiewohl mein Herz in Tranen schwimmt (Soprano)
DR14 -1.95 dB -22.27 dB 3:24 21-St. Matthew Passion, BWV 244:St. Matthew Passion, BWV 244: Part I: Aria: Ich will dir mein Herze schenken (Soprano)
DR12 -2.58 dB -18.82 dB 6:25 01-St. Matthew Passion, BWV 244:St. Matthew Passion, BWV 244: Part I: Kommt, ihr Tochter, helft mir klagen (Chorus)
DR10 -2.39 dB -18.15 dB 0:34 03-St. Matthew Passion, BWV 244:St. Matthew Passion, BWV 244: Part I: Chorale: Herzliebster Jesu, was hast du verbrochen (Chorus)
DR11 -1.79 dB -14.95 dB 0:14 05-St. Matthew Passion, BWV 244:St. Matthew Passion, BWV 244: Part I: Ja nicht auf das Fest (Chorus)
DR9 -5.09 dB -19.47 dB 0:26 07-St. Matthew Passion, BWV 244:St. Matthew Passion, BWV 244: Part I: Wozu dienet dieser Unrat? (Chorus)
DR10 -5.99 dB -20.52 dB 0:21 14-St. Matthew Passion, BWV 244:St. Matthew Passion, BWV 244: Part I: Wo willst du, dass wir dir bereiten (Chorus)
DR14 -6.82 dB -22.38 dB 0:10 17-St. Matthew Passion, BWV 244:St. Matthew Passion, BWV 244: Part I: Herr, bin ich's? (Chorus)
DR11 -4.86 dB -18.74 dB 0:36 18-St. Matthew Passion, BWV 244:St. Matthew Passion, BWV 244: Part I: Chorale: Ich bin's, ich sollte bussen (Chorus)
DR11 -3.58 dB -18.98 dB 0:52 23-St. Matthew Passion, BWV 244:St. Matthew Passion, BWV 244: Part I: Chorale: Erkenne mich, mein Huter (Chorus)
DR11 -5.32 dB -19.58 dB 0:52 25-St. Matthew Passion, BWV 244:St. Matthew Passion, BWV 244: Part I: Es dient zu meinen Freuden (Chorus)
DR11 -2.52 dB -17.64 dB 0:51 33-St. Matthew Passion, BWV 244:St. Matthew Passion, BWV 244: Part I: Chorale: Was mein Gott will, das g'scheh allzeit (Chorus)
DR12 -0.89 dB -16.74 dB 1:01 36-St. Matthew Passion, BWV 244:St. Matthew Passion, BWV 244: Part I: Sind Blitze, sind Donner in Wolken verschwunden? (Chorus)
DR10 -4.08 dB -18.88 dB 0:49 38-St. Matthew Passion, BWV 244:St. Matthew Passion, BWV 244: Part I: Jesum lass ich nicht von mir (Chorus)
DR13 -3.78 dB -22.26 dB 3:20 35-St. Matthew Passion, BWV 244:St. Matthew Passion, BWV 244: Part I: Aria and Chorus: So ist mein Jesus nun gefangen (Alto, Soprano, Chorus)
DR12 -7.03 dB -22.61 dB 1:35 27-St. Matthew Passion, BWV 244:St. Matthew Passion, BWV 244: Part I: Recitative and Chorale: O Schmerz, hier zittert das gequalte Herz (Tenor, Chorus)
DR13 -5.41 dB -22.88 dB 5:00 28-St. Matthew Passion, BWV 244:St. Matthew Passion, BWV 244: Part I: Aria and Chorus: Ich will bei meinem Jesu wachen (Tenor, Chorus)
DR10 -4.88 dB -24.68 dB 0:25 04-St. Matthew Passion, BWV 244:St. Matthew Passion, BWV 244: Part I: Recitative: Da versammleten sich die Hohenpriester (Evangelist, Chorus, Jesus)
DR15 -5.01 dB -24.48 dB 0:57 30-St. Matthew Passion, BWV 244:St. Matthew Passion, BWV 244: Part I: Recitative: Der Heiland fallt vor seinem Vater nieder (Bass)
DR15 -6.10 dB -25.77 dB 4:14 31-St. Matthew Passion, BWV 244:St. Matthew Passion, BWV 244: Part I: Aria: Gerne will ich mich bequemen (Bass)
DR11 -6.09 dB -24.50 dB 0:28 06-St. Matthew Passion, BWV 244:St. Matthew Passion, BWV 244: Part I: Recitative: Da nun Jesus war zu Bethanien (Evangelist)
DR12 -12.42 dB -29.75 dB 0:13 13-St. Matthew Passion, BWV 244:St. Matthew Passion, BWV 244: Part I: Recitative: Aber am ersten Tage der Sussen Brot' (Evangelist)
DR14 -13.65 dB -30.25 dB 0:10 16-St. Matthew Passion, BWV 244:St. Matthew Passion, BWV 244: Part I: Recitative: Und sie wurden sehr betrubt und huben an (Evangelist)
DR15 -5.28 dB -25.65 dB 0:58 22-St. Matthew Passion, BWV 244:St. Matthew Passion, BWV 244: Part I: Recitative: Und da sie den Lobgesang gesprochen hatten (Evangelist, Jesus)
DR12 -5.99 dB -23.84 dB 0:37 02-St. Matthew Passion, BWV 244:St. Matthew Passion, BWV 244: Part I: Recitative: Da Jesus diese Rede vollendet hatte (Evangelist, Jesus)
DR14 -5.98 dB -24.49 dB 1:11 08-St. Matthew Passion, BWV 244:St. Matthew Passion, BWV 244: Part I: Recitative: Da das Jesus merkete, sprach er zu ihnen (Evangelist, Jesus)
DR12 -5.52 dB -24.62 dB 1:07 15-St. Matthew Passion, BWV 244:St. Matthew Passion, BWV 244: Part I: Recitative: Er sprach (Evangelist) - Gehet hin di die Stadt (Jesus)
DR13 -6.57 dB -27.42 dB 1:29 26-St. Matthew Passion, BWV 244:St. Matthew Passion, BWV 244: Part I: Recitative: Da kam Jesus mit ihnen zu einem Hofe (Evangelist, Jesus)
DR13 -6.01 dB -25.24 dB 0:35 29-St. Matthew Passion, BWV 244:St. Matthew Passion, BWV 244: Part I: Recitative: Und ging hin ein wenig (Evangelist, Jesus)
DR14 -3.73 dB -24.18 dB 1:00 32-St. Matthew Passion, BWV 244:St. Matthew Passion, BWV 244: Part I: Recitative: Und er kam zu seinen Jungern (Evangelist, Jesus)
DR15 -4.04 dB -23.06 dB 1:58 37-St. Matthew Passion, BWV 244:St. Matthew Passion, BWV 244: Part I: Recitative: Und siehe, einer aus denen (Evangelist, Jesus)
DR15 -7.31 dB -26.34 dB 0:35 11-St. Matthew Passion, BWV 244:St. Matthew Passion, BWV 244: Part I: Recitative: Da ging hin der Zwolfen einer (Evangelist, Judas)
DR15 -3.99 dB -23.23 dB 2:39 19-St. Matthew Passion, BWV 244:St. Matthew Passion, BWV 244: Part I: Recitative: Er antwortete und sprach (Evangelist, Jesus, Judas)
DR17 -0.81 dB -24.04 dB 2:09 34-St. Matthew Passion, BWV 244:St. Matthew Passion, BWV 244: Part I: Recitative: Und er kam und fand sie aber schlafend (Evangelist, Jesus, Judas)
DR14 -2.61 dB -24.97 dB 0:55 24-St. Matthew Passion, BWV 244:St. Matthew Passion, BWV 244: Part I: Recitative: Petrus aber antwortete (Evangelist, Jesus, Petrus)
DR12 -8.98 dB -26.53 dB 0:53 09-St. Matthew Passion, BWV 244:St. Matthew Passion, BWV 244: Part I: Recitative: Du lieber Heiland du (Alto)
DR14 -8.22 dB -25.81 dB 4:18 10-St. Matthew Passion, BWV 244:St. Matthew Passion, BWV 244: Part I: Aria: Buss und Reu (Alto)
--------------------------------------------------------------------------------
Number of tracks: 38
Official DR value: DR13
Samplerate: 96000 Hz
Channels: 2
Bits per sample: 24
Bitrate: 2590 kbps
Codec: FLAC
================================================================================
foobar2000 1.2.6 / Dynamic Range Meter 1.1.1
log date: 2015-05-18 01:24:07
--------------------------------------------------------------------------------
Analyzed: Academy of Ancient Music, Orchestra - Ashley Riches, Performer - Richard Egarr, Conductor - Johann Sebastian Bach, Composer - Christian Friedrich Henrici, Lyricist - Bible - New Testament, Lyricist / Academy of Ancient Music - Richard Egarr : J.S. Bach: St. Matthew Passion, BWV 244 (1-2)
Choir of the AAM, Choir - Academy of Ancient Music, Orchestra - Richard Egarr, Conductor - Johann Sebastian Bach, Composer - Christian Friedrich Henrici, Lyricist - Bible - New Testament, Lyricist / Academy of Ancient Music - Richard Egarr : J.S. Bach: St. Matthew Passion, BWV 244 (3-16)
Choir of the AAM, Choir - Christopher Maltman, Performer - Academy of Ancient Music, Orchestra - Richard Egarr, Conductor - Johann Sebastian Bach, Composer - Christian Friedrich Henrici, Lyricist - Bible - New Testament, Lyricist / Academy of Ancient Music - Richard Egarr : J.S. Bach: St. Matthew Passion, BWV 244 (17)
Choir of the AAM, Choir - James Gilchrist, Performer - Philippa Hyde, Performer - Academy of Ancient Music, Orchestra - Ashley Riches, Performer - Richard Egarr, Conductor - Johann Sebastian Bach, Composer - Christian Friedrich Henrici, Lyricist - Bible - New Testament, Lyricist / Academy of Ancient Music - Richard Egarr : J.S. Bach: St. Matthew Passion, BWV 244 (18)
Christopher Maltman, Performer - Academy of Ancient Music, Orchestra - Richard Egarr, Conductor - Johann Sebastian Bach, Composer - Christian Friedrich Henrici, Lyricist - Bible - New Testament, Lyricist / Academy of Ancient Music - Richard Egarr : J.S. Bach: St. Matthew Passion, BWV 244 (19)
James Gilchrist, Performer - Academy of Ancient Music, Orchestra - Ashley Riches, Performer - Richard Egarr, Conductor - Johann Sebastian Bach, Composer - Christian Friedrich Henrici, Lyricist - Bible - New Testament, Lyricist / Academy of Ancient Music - Richard Egarr : J.S. Bach: St. Matthew Passion, BWV 244 (20-21)
James Gilchrist, Performer - Academy of Ancient Music, Orchestra - Richard Egarr, Conductor - Johann Sebastian Bach, Composer - Christian Friedrich Henrici, Lyricist - Bible - New Testament, Lyricist / Academy of Ancient Music - Richard Egarr : J.S. Bach: St. Matthew Passion, BWV 244 (22-27)
James Gilchrist, Performer - Matthew Rose, Performer - Ashley Riches, Performer - Academy of Ancient Music, Orchestra - Richard Egarr, Conductor - Johann Sebastian Bach, Composer - Christian Friedrich Henrici, Lyricist - Bible - New Testament, Lyricist / Academy of Ancient Music - Richard Egarr : J.S. Bach: St. Matthew Passion, BWV 244 (28)
Philip Tebb, Performer - James Gilchrist, Performer - Academy of Ancient Music, Orchestra - Richard Egarr, Conductor - Johann Sebastian Bach, Composer - Christian Friedrich Henrici, Lyricist - Bible - New Testament, Lyricist / Academy of Ancient Music - Richard Egarr : J.S. Bach: St. Matthew Passion, BWV 244 (29)
Philip Tebb, Performer - Richard Latham, Performer - Richard Bannan, Performer - James Gilchrist, Performer - Academy of Ancient Music, Orchestra - Richard Egarr, Conductor - Johann Sebastian Bach, Composer - Christian Friedrich Henrici, Lyricist - Bible - New Testament, Lyricist / Academy of Ancient Music - Richard Egarr : J.S. Bach: St. Matthew Passion, BWV 244 (30)
Richard Bannan, Performer - James Gilchrist, Performer - Academy of Ancient Music, Orchestra - Richard Egarr, Conductor - Johann Sebastian Bach, Composer - Christian Friedrich Henrici, Lyricist - Bible - New Testament, Lyricist / Academy of Ancient Music - Richard Egarr : J.S. Bach: St. Matthew Passion, BWV 244 (31)
Richard Bannan, Performer - James Gilchrist, Performer - Matthew Rose, Performer - Academy of Ancient Music, Orchestra - Richard Egarr, Conductor - Johann Sebastian Bach, Composer - Christian Friedrich Henrici, Lyricist - Bible - New Testament, Lyricist / Academy of Ancient Music - Richard Egarr : J.S. Bach: St. Matthew Passion, BWV 244 (32)
Richard Latham, Performer - James Gilchrist, Performer - Academy of Ancient Music, Orchestra - Richard Egarr, Conductor - Johann Sebastian Bach, Composer - Christian Friedrich Henrici, Lyricist - Bible - New Testament, Lyricist / Academy of Ancient Music - Richard Egarr : J.S. Bach: St. Matthew Passion, BWV 244 (33)
Richard Latham, Performer - Philippa Hyde, Performer - Elizabeth Drury, Performer - James Gilchrist, Performer - Academy of Ancient Music, Orchestra - Richard Egarr, Conductor - Johann Sebastian Bach, Composer - Christian Friedrich Henrici, Lyricist - Bible - New Testament, Lyricist / Academy of Ancient Music - Richard Egarr : J.S. Bach: St. Matthew Passion, BWV 244 (34)
Sarah Connolly, Performer - Academy of Ancient Music, Orchestra - Richard Egarr, Conductor - Johann Sebastian Bach, Composer - Christian Friedrich Henrici, Lyricist - Bible - New Testament, Lyricist / Academy of Ancient Music - Richard Egarr : J.S. Bach: St. Matthew Passion, BWV 244 (35-37)
Thomas Hobbs, Performer - Academy of Ancient Music, Orchestra - Richard Egarr, Conductor - Johann Sebastian Bach, Composer - Christian Friedrich Henrici, Lyricist - Bible - New Testament, Lyricist / Academy of Ancient Music - Richard Egarr : J.S. Bach: St. Matthew Passion, BWV 244 (38-39)
--------------------------------------------------------------------------------
DR Peak RMS Duration Track
--------------------------------------------------------------------------------
DR14 -3.60 dB -23.69 dB 1:10 27-St. Matthew Passion, BWV 244:St. Matthew Passion, BWV 244: Part II: Recitative: Er hat uns allen wohlgetan (Soprano)
DR14 -4.55 dB -25.75 dB 5:03 28-St. Matthew Passion, BWV 244:St. Matthew Passion, BWV 244: Part II: Aria: Aus Liebe will mein Heiland sterben (Soprano)
DR11 -2.89 dB -16.62 dB 0:36 03-St. Matthew Passion, BWV 244:St. Matthew Passion, BWV 244: Part II: Chorale: Mir hat die Welt truglich gericht' (Chorus)
DR11 -2.28 dB -14.04 dB 0:10 08-St. Matthew Passion, BWV 244:St. Matthew Passion, BWV 244: Part II: Er ist des Todes schuldig! (Chorus)
DR11 -3.03 dB -16.40 dB 0:18 10-St. Matthew Passion, BWV 244:St. Matthew Passion, BWV 244: Part II: Weissage uns, Christe, wer its's, der dich schlug? (Chorus)
DR10 -5.91 dB -19.72 dB 0:36 11-St. Matthew Passion, BWV 244:St. Matthew Passion, BWV 244: Part II: Chorale: Wer hat dich so geschlagen (Chorus)
DR12 -5.96 dB -19.78 dB 0:10 13-St. Matthew Passion, BWV 244:St. Matthew Passion, BWV 244: Part II: Wahrlich, du bist auch einer von denen (Chorus)
DR11 -4.15 dB -17.82 dB 0:48 16-St. Matthew Passion, BWV 244:St. Matthew Passion, BWV 244: Part II: Chorale: Bin ich gleich von dir gewichen (Chorus)
DR13 -1.51 dB -15.38 dB 0:08 18-St. Matthew Passion, BWV 244:St. Matthew Passion, BWV 244: Part II: Was gehet uns das an? Da siehe du zu! (Chorus)
DR11 -4.93 dB -19.46 dB 0:50 22-St. Matthew Passion, BWV 244:St. Matthew Passion, BWV 244: Part II: Chorale: Befiehl du deine Wege (Chorus)
DR10 -2.55 dB -16.82 dB 0:15 24-St. Matthew Passion, BWV 244:St. Matthew Passion, BWV 244: Part II: Lass ihn kreuzigen! (Chorus)
DR10 -3.27 dB -17.10 dB 0:32 25-St. Matthew Passion, BWV 244:St. Matthew Passion, BWV 244: Part II: Chorale: Wie wunderbarlich ist doch diese Strafe (Chorus)
DR11 -0.37 dB -14.76 dB 0:15 30-St. Matthew Passion, BWV 244:St. Matthew Passion, BWV 244: Part II: Lass ihn kreuzigen! (Chorus)
DR10 -0.87 dB -14.81 dB 0:38 32-St. Matthew Passion, BWV 244:St. Matthew Passion, BWV 244: Part II: Sein Blut komme uber uns und unstre Kinder (Chorus)
DR12 -2.36 dB -15.14 dB 0:09 37-St. Matthew Passion, BWV 244:St. Matthew Passion, BWV 244: Part II: Gegrusset seist du, Judenkonig! (Chorus)
DR11 -1.98 dB -19.50 dB 0:58 39-St. Matthew Passion, BWV 244:St. Matthew Passion, BWV 244: Part II: Chorale: O Haupt voll Blut und Wunden (Chorus)
DR14 -4.26 dB -21.81 dB 3:17 01-St. Matthew Passion, BWV 244:St. Matthew Passion, BWV 244: Part II: Aria and Chorus: Ach! Nun ist mein Jesus hin (Alto, Chorus)
DR17 -0.89 dB -23.67 dB 1:50 23-St. Matthew Passion, BWV 244:St. Matthew Passion, BWV 244: Part II: Recitative and Chorus: Auf das Fest aber hatte der Landpfleger (Evangelist, Pilatus, Uxor Pilati, Chorus)
DR15 -5.55 dB -25.55 dB 2:37 20-St. Matthew Passion, BWV 244:St. Matthew Passion, BWV 244: Part II: Aria: Gebt mir meinen Jesum wieder (Bass)
DR11 -9.62 dB -28.20 dB 0:15 26-St. Matthew Passion, BWV 244:St. Matthew Passion, BWV 244: Part II: Recitative: Der Landpfleger sagte (Evangelist, Pilatus)
DR14 -1.35 dB -20.98 dB 0:25 31-St. Matthew Passion, BWV 244:St. Matthew Passion, BWV 244: Part II: Recitative: Da aber Pilatus sahe, dass er nichts schaffete (Evangelist, Pilatus)
DR13 -4.82 dB -26.86 dB 1:04 02-St. Matthew Passion, BWV 244:St. Matthew Passion, BWV 244: Part II: Recitative: Die aber Jesum gegriffen hatten (Evangelist)
DR15 -3.92 dB -21.46 dB 0:13 09-St. Matthew Passion, BWV 244:St. Matthew Passion, BWV 244: Part II: Recitative: Da spieten sie aus in sein Angesicht und schlugen ihn mit Fausten (Evangelist)
DR13 -4.22 dB -18.49 dB 0:05 29-St. Matthew Passion, BWV 244:St. Matthew Passion, BWV 244: Part II: Recitative: Sie schrieen aber noch mehr (Evangelist)
DR13 -2.00 dB -21.14 dB 0:19 33-St. Matthew Passion, BWV 244:St. Matthew Passion, BWV 244: Part II: Recitative: Da gab er ihnen Barrabam los (Evangelist)
DR14 -4.35 dB -25.45 dB 0:37 36-St. Matthew Passion, BWV 244:St. Matthew Passion, BWV 244: Part II: Recitative: Da nahmen die Kriegsknechte (Evangelist)
DR14 -1.68 dB -23.01 dB 0:12 38-St. Matthew Passion, BWV 244:St. Matthew Passion, BWV 244: Part II: Recitative: Und speieten ihn an und nahmen das Rohr und schlugen (Evangelist)
DR16 -6.48 dB -26.62 dB 1:49 21-St. Matthew Passion, BWV 244:St. Matthew Passion, BWV 244: Part II: Recitative: Sie hielten aber einen Rat (Evangelist, Pilatus, Jesus)
DR15 -4.15 dB -23.79 dB 0:56 17-St. Matthew Passion, BWV 244:St. Matthew Passion, BWV 244: Part II: Recitative: Des Morgens aber hielten alle Hohepreister (Evangelist, Judas)
DR14 -4.60 dB -22.19 dB 0:41 19-St. Matthew Passion, BWV 244:St. Matthew Passion, BWV 244: Part II: Recitative: Und er warf die Silberlinge in den Tempel, hub sich davon (Evangelist, 2 Pontifices)
DR15 -3.44 dB -25.78 dB 1:05 04-St. Matthew Passion, BWV 244:St. Matthew Passion, BWV 244: Part II: Recitative: Und wiewohl viel falsche Zeugen herzutraten (Evangelist, 2 Testes, Pontifex)
DR15 -1.40 dB -23.40 dB 1:07 07-St. Matthew Passion, BWV 244:St. Matthew Passion, BWV 244: Part II: Recitative and Chorus: Und der Hohepriester antwortete (Evangelist, Jesus, Pontifex)
DR14 -5.13 dB -25.11 dB 1:17 14-St. Matthew Passion, BWV 244:St. Matthew Passion, BWV 244: Part II: Recitative: Da hub er an, sich zu verfluchen (Evangelist, Petrus)
DR15 -6.22 dB -25.06 dB 0:54 12-St. Matthew Passion, BWV 244:St. Matthew Passion, BWV 244: Part II: Recitative: Petrus aber sass draussen im Palast (Evangelist, 2 Servants, Petrus)
DR14 -5.63 dB -24.48 dB 6:41 15-St. Matthew Passion, BWV 244:St. Matthew Passion, BWV 244: Part II: Aria: Erbarme dich, mein Gott (Alto)
DR13 -4.77 dB -22.40 dB 0:58 34-St. Matthew Passion, BWV 244:St. Matthew Passion, BWV 244: Part II: Recitative: Erbarm es Gott (Alto)
DR15 -7.32 dB -26.77 dB 6:13 35-St. Matthew Passion, BWV 244:St. Matthew Passion, BWV 244: Part II: Aria: Konnen Tranen meiner Wangen (Alto)
DR11 -10.68 dB -27.32 dB 0:57 05-St. Matthew Passion, BWV 244:St. Matthew Passion, BWV 244: Part II: Recitative: Mein Jesus schweigt zu falschen Lugen stille (Tenor)
DR14 -5.73 dB -26.52 dB 3:32 06-St. Matthew Passion, BWV 244:St. Matthew Passion, BWV 244: Part II: Aria: Geduld! Geduld! (Tenor)
--------------------------------------------------------------------------------
Number of tracks: 39
Official DR value: DR13
Samplerate: 96000 Hz
Channels: 2
Bits per sample: 24
Bitrate: 2712 kbps
Codec: FLAC
================================================================================
foobar2000 1.2.6 / Dynamic Range Meter 1.1.1
log date: 2015-05-18 01:22:18
--------------------------------------------------------------------------------
Analyzed: Choir of the AAM, Choir - Academy of Ancient Music, Orchestra - Richard Egarr, Conductor - Johann Sebastian Bach, Composer - Christian Friedrich Henrici, Lyricist - Bible - New Testament, Lyricist / Academy of Ancient Music - Richard Egarr : J.S. Bach: St. Matthew Passion, BWV 244 (1-9)
Choir of the AAM, Choir - Christopher Maltman, Performer - Thomas Hobbs, Performer - Sarah Connolly, Performer - Academy of Ancient Music, Orchestra - Ashley Riches, Performer - Richard Egarr, Conductor - Johann Sebastian Bach, Composer - Christian Friedrich Henrici, Lyricist - Bible - New Testament, Lyricist / Academy of Ancient Music - Richard Egarr : J.S. Bach: St. Matthew Passion, BWV 244 (10)
Christopher Maltman, Performer - Academy of Ancient Music, Orchestra - Richard Egarr, Conductor - Johann Sebastian Bach, Composer - Christian Friedrich Henrici, Lyricist - Bible - New Testament, Lyricist / Academy of Ancient Music - Richard Egarr : J.S. Bach: St. Matthew Passion, BWV 244 (11-14)
James Gilchrist, Performer - Academy of Ancient Music, Orchestra - Ashley Riches, Performer - Richard Egarr, Conductor - Johann Sebastian Bach, Composer - Christian Friedrich Henrici, Lyricist - Bible - New Testament, Lyricist / Academy of Ancient Music - Richard Egarr : J.S. Bach: St. Matthew Passion, BWV 244 (15)
James Gilchrist, Performer - Academy of Ancient Music, Orchestra - Richard Egarr, Conductor - Johann Sebastian Bach, Composer - Christian Friedrich Henrici, Lyricist - Bible - New Testament, Lyricist / Academy of Ancient Music - Richard Egarr : J.S. Bach: St. Matthew Passion, BWV 244 (16-23)
James Gilchrist, Performer - Matthew Rose, Performer - Academy of Ancient Music, Orchestra - Richard Egarr, Conductor - Johann Sebastian Bach, Composer - Christian Friedrich Henrici, Lyricist - Bible - New Testament, Lyricist / Academy of Ancient Music - Richard Egarr : J.S. Bach: St. Matthew Passion, BWV 244 (24)
Sarah Connolly, Performer - Academy of Ancient Music, Orchestra - Richard Egarr, Conductor - Johann Sebastian Bach, Composer - Christian Friedrich Henrici, Lyricist - Bible - New Testament, Lyricist / Academy of Ancient Music - Richard Egarr : J.S. Bach: St. Matthew Passion, BWV 244 (25)
Sarah Connolly, Performer - James Gilchrist, Performer - Academy of Ancient Music, Orchestra - Richard Egarr, Conductor - Johann Sebastian Bach, Composer - Christian Friedrich Henrici, Lyricist - Bible - New Testament, Lyricist / Academy of Ancient Music - Richard Egarr : J.S. Bach: St. Matthew Passion, BWV 244 (26)
--------------------------------------------------------------------------------
DR Peak RMS Duration Track
--------------------------------------------------------------------------------
DR10 -1.91 dB -14.88 dB 0:25 05-St. Matthew Passion, BWV 244:St. Matthew Passion, BWV 244: Part II: Der du den Tempel Gottes zerbrichst und bauest ihn in dreien Tagen (Chorus)
DR11 -1.59 dB -16.37 dB 0:45 07-St. Matthew Passion, BWV 244:St. Matthew Passion, BWV 244: Part II: Andern hat er geholfen und kann sich selber nicht helfen (Chorus)
DR13 -6.68 dB -24.73 dB 2:49 10-St. Matthew Passion, BWV 244:St. Matthew Passion, BWV 244: Part II: Aria and Chorus: Sehet, Jesus hat die Hand (Alto, Chorus)
DR12 -5.17 dB -19.68 dB 0:04 12-St. Matthew Passion, BWV 244:St. Matthew Passion, BWV 244: Part II: Der rufet den Elias (Chorus)
DR12 -2.93 dB -17.61 dB 0:06 14-St. Matthew Passion, BWV 244:St. Matthew Passion, BWV 244: Part II: Halt! lass sehen, ob Elias komme und ihm helfe? (Chorus)
DR11 -8.52 dB -24.06 dB 1:02 16-St. Matthew Passion, BWV 244:St. Matthew Passion, BWV 244: Part II: Chorale: Wenn ich einmal soll scheiden (Chorus)
DR7 -1.89 dB -16.45 dB 0:17 18-St. Matthew Passion, BWV 244:St. Matthew Passion, BWV 244: Part II: Wahrlich, dieser ist Gottes Sohn gewesen (Chorus)
DR10 -2.27 dB -16.34 dB 0:48 23-St. Matthew Passion, BWV 244:St. Matthew Passion, BWV 244: Part II: Herr, wir haben gedacht, dass dieser Verfuhrere sprach (Chorus)
DR14 -2.74 dB -20.50 dB 5:09 26-St. Matthew Passion, BWV 244:St. Matthew Passion, BWV 244: Part II: Chorale: Wir setzen uns mit Tranen nieder (Chorus)
DR13 -3.84 dB -23.31 dB 1:37 25-St. Matthew Passion, BWV 244:St. Matthew Passion, BWV 244: Part II: Recitative: Nun ist der Herr zur Ruh gebracht (All)
DR16 -6.02 dB -26.03 dB 0:31 02-St. Matthew Passion, BWV 244:St. Matthew Passion, BWV 244: Part II: Recitative: Ja! freilich will in uns das Fleisch und Blut (Bass)
DR16 -8.33 dB -29.45 dB 5:02 03-St. Matthew Passion, BWV 244:St. Matthew Passion, BWV 244: Part II: Aria: Komm, susses Kreuz (Bass)
DR15 -6.50 dB -26.16 dB 1:45 20-St. Matthew Passion, BWV 244:St. Matthew Passion, BWV 244: Part II: Recitative: Am Abend, da es kuhle war (Bass)
DR15 -4.33 dB -21.52 dB 5:50 21-St. Matthew Passion, BWV 244:St. Matthew Passion, BWV 244: Part II: Aria: Mache dich, mein Herze, rein (Bass)
DR13 -9.42 dB -27.32 dB 0:34 24-St. Matthew Passion, BWV 244:St. Matthew Passion, BWV 244: Part II: Recitative: Pilatus sprach zu ihnen (Evangelist, Pilatus)
DR13 -6.23 dB -26.18 dB 1:02 01-St. Matthew Passion, BWV 244:St. Matthew Passion, BWV 244: Part II: Recitative: Und da sie ihn verspottet hatten (Evangelist)
DR15 -3.80 dB -25.84 dB 1:42 04-St. Matthew Passion, BWV 244:St. Matthew Passion, BWV 244: Part II: Recitative: Und da sie an die Statte kamen (Evangelist)
DR15 -6.41 dB -23.25 dB 0:09 06-St. Matthew Passion, BWV 244:St. Matthew Passion, BWV 244: Part II: Recitative: Desgleichen auch die Hohenpriester spotteten sein samt (Evangelist)
DR12 -4.73 dB -22.94 dB 0:15 13-St. Matthew Passion, BWV 244:St. Matthew Passion, BWV 244: Part II: Recitative: Und bald lief einer unter ihnen, nahm einen Schwamm (Evangelist)
DR10 -5.69 dB -25.77 dB 0:22 15-St. Matthew Passion, BWV 244:St. Matthew Passion, BWV 244: Part II: Recitative: Aber Jesus schriee abermal laut und verschied (Evangelist)
DR14 -3.24 dB -22.02 dB 1:07 17-St. Matthew Passion, BWV 244:St. Matthew Passion, BWV 244: Part II: Recitative: Und siehe da, der Vorhang im Tempel zerriss (Evangelist)
DR14 -10.32 dB -28.75 dB 1:08 19-St. Matthew Passion, BWV 244:St. Matthew Passion, BWV 244: Part II: Recitative: Und es waren viel Weiber (Evangelist)
DR16 -5.53 dB -27.16 dB 1:00 22-St. Matthew Passion, BWV 244:St. Matthew Passion, BWV 244: Part II: Recitative: Und Joseph nahm den Leib (Evangelist)
DR13 -2.37 dB -21.57 dB 1:18 11-St. Matthew Passion, BWV 244:St. Matthew Passion, BWV 244: Part II: Recitative: Und von der sechsten Stunde (Evangelist, Jesus)
DR13 -7.82 dB -25.32 dB 1:16 09-St. Matthew Passion, BWV 244:St. Matthew Passion, BWV 244: Part II: Recitative: Ach Golgatha, unsel'ges Golgatha (Alto)
DR15 -3.46 dB -22.88 dB 0:15 08-St. Matthew Passion, BWV 244:St. Matthew Passion, BWV 244: Part II: Recitative: Desgleichen schmaheten ihn auch die Morder (Evangelist)
--------------------------------------------------------------------------------
Number of tracks: 26
Official DR value: DR13
Samplerate: 96000 Hz
Channels: 2
Bits per sample: 24
Bitrate: 2604 kbps
Codec: FLAC
================================================================================

Состав


James Gilchrist · Evangelista
Matthew Rose · Jesus
Ashley Riches · Pilatus
Elizabeth Watts · soprano
Sarah Connolly · alto
Thomas Hobbs · tenor
Christopher Maltman · bass
Christopher Field · Testis I
Stuart Jackson · Testis II
Richard Bannan · Pontifex
Philippa Hyde · Ancilla I, Uxor Pilati
Elizabeth Drury · Ancilla II
Richard Latham · Petrus, Pontifex I
Philip Tebb · Judas, Pontifex II
Richard Egarr · director & harpsichord
Academy of Ancient Music
Choir of the AAM
[teatrix.ru].t21192.torrent 
Торрент: Зарегистрирован [ 2016-03-20 00:50 ] · CFDC9BDF28A8F4CA9CFC5E89167D59A9925315D7

Скачать .torrent

Скачать

27 KB

Статус: проверено
Скачан: 0 раз
Размер: 2.74 GB
terms.php



Быстрый ответ

Имя:

      
Для отправки сообщений необходимо включить JavaScript
Показать сообщения:    

Текущее время: 09-Дек 01:07

Часовой пояс: UTC + 3


Вы можете начинать темы
Вы можете отвечать на сообщения
Вы не можете редактировать свои сообщения
Вы не можете удалять свои сообщения
Вы не можете голосовать в опросах
Вы не можете прикреплять файлы к сообщениям
Вы можете скачивать файлы